<?xml version="1.0" standalone="no"?>
<!DOCTYPE svg PUBLIC "-//W3C//DTD SVG 1.1//EN" "http://www.w3.org/Graphics/SVG/1.1/DTD/svg11.dtd" >
<svg xmlns="http://www.w3.org/2000/svg">
<metadata>Generated by IcoMoon</metadata>
<defs>
<font id="material" horiz-adv-x="1024">
<font-face units-per-em="1024" ascent="960" descent="-64" />
<missing-glyph horiz-adv-x="1024" />
<glyph unicode="&#x20;" d="" horiz-adv-x="512" />
<glyph unicode="&#xe000;" d="M554 384.667v256h-84v-256h84zM554 212.667v86h-84v-86h84zM512 852.667q176 0 301-125t125-301-125-301-301-125-301 125-125 301 125 301 301 125z" />
<glyph unicode="&#xe001;" d="M512 84.667q140 0 241 101t101 241-101 241-241 101-241-101-101-241 101-241 241-101zM512 852.667q176 0 301-125t125-301-125-301-301-125-301 125-125 301 125 301 301 125zM470 640.667h84v-256h-84v256zM470 298.667h84v-86h-84v86z" />
<glyph unicode="&#xe002;" d="M554 340.667v172h-84v-172h84zM554 170.667v86h-84v-86h84zM42 42.667l470 810 470-810h-940z" />
<glyph unicode="&#xe003;" d="M682 382.667v86h-128v128h-84v-128h-128v-86h128v-128h84v128h128zM806 220.667l90-90v-46h-768v46l90 90v248q0 102 64 183t162 103v30q0 28 20 48t48 20 48-20 20-48v-30q98-22 162-103t64-183v-248zM428 42.667h168q0-34-25-60t-59-26-59 26-25 60z" />
<glyph unicode="&#xe004;" d="M512 468.667q18 0 30-12t12-30-12-30-30-12-30 12-12 30 12 30 30 12zM512 234.667q80 0 136 56t56 136-56 136-136 56-136-56-56-136 56-136 136-56zM512 852.667q176 0 301-125t125-301-125-301-301-125-301 125-125 301 125 301 301 125z" />
<glyph unicode="&#xe005;" d="M256 426.667q0 18 12 30t30 12 31-12 13-30-13-30-31-12-30 12-12 30zM768 426.667q0-18-12-30t-30-12-31 12-13 30 13 30 31 12 30-12 12-30zM470 810.667h42q160 0 272-112t112-272-112-272-272-112-272 112-112 272q0 192 154 306v2l290-290-60-60-232 230q-66-82-66-188 0-124 87-211t211-87 211 87 87 211q0 112-74 196t-182 100v-82h-84v170zM470 212.667q0 18 12 31t30 13 30-13 12-31-12-30-30-12-30 12-12 30z" />
<glyph unicode="&#xe006;" d="M768 468.667v44q0 18-12 30t-30 12h-128q-18 0-31-12t-13-30v-172q0-18 13-30t31-12h128q18 0 30 12t12 30v44h-64v-22h-86v128h86v-22h64zM470 468.667v44q0 18-13 30t-31 12h-128q-18 0-30-12t-12-30v-172q0-18 12-30t30-12h128q18 0 31 12t13 30v44h-64v-22h-86v128h86v-22h64zM810 768.667q34 0 60-26t26-60v-512q0-34-26-60t-60-26h-596q-36 0-61 26t-25 60v512q0 34 25 60t61 26h596z" />
<glyph unicode="&#xe007;" d="M682 554.667h172v-470h-172v470zM170 84.667v342h172v-342h-172zM426 84.667v684h172v-684h-172z" />
<glyph unicode="&#xe008;" d="M640 554.667v86h-256v-428h256v86h-170v86h170v84h-170v86h170zM810 810.667q34 0 60-26t26-60v-596q0-34-26-60t-60-26h-596q-34 0-60 26t-26 60v596q0 34 26 60t60 26h596z" />
<glyph unicode="&#xe009;" d="M554 682.667l364-256-364-256v512zM170 170.667v512l364-256z" />
<glyph unicode="&#xe00a;" d="M490 426.667l364 256v-512zM470 170.667l-364 256 364 256v-512z" />
<glyph unicode="&#xe00b;" d="M704 554.667h234v-256h-234l-128 128zM384 234.667l128 128 128-128v-234h-256v234zM320 554.667l128-128-128-128h-234v256h234zM640 618.667l-128-128-128 128v234h256v-234z" />
<glyph unicode="&#xe00c;" d="M490 554.667q0 44 32 75t76 31 75-31 31-75-31-75-75-31-76 31-32 75zM326 826.667q-112-112-112-272t112-272l-60-60q-138 138-138 332t138 332zM726 84.667q34 0 59 26t25 60h86q0-70-50-120t-120-50q-40 0-70 14-82 42-118 152-14 44-72 88-82 60-122 134-46 82-46 166 0 126 87 212t213 86 212-86 86-212h-86q0 90-61 152t-151 62-152-62-62-152q0-64 34-126 28-54 100-108 80-60 102-128 26-76 72-100 16-8 34-8z" />
<glyph unicode="&#xe00d;" d="M618 362.667v128h86v-128h-86zM768 340.667v172q0 18-12 30t-30 12h-128q-18 0-31-12t-13-30v-172q0-18 13-30t31-12h32v-64h64v64h32q18 0 30 12t12 30zM470 298.667v256h-64v-106h-86v106h-64v-256h64v86h86v-86h64zM810 768.667q34 0 60-26t26-60v-512q0-34-26-60t-60-26h-596q-36 0-61 26t-25 60v512q0 34 25 60t61 26h596z" />
<glyph unicode="&#xe00e;" d="M512 170.667v128l170-170-170-172v128q-140 0-241 101t-101 241q0 100 54 182l62-62q-30-54-30-120 0-106 75-181t181-75zM512 768.667q140 0 241-101t101-241q0-100-54-182l-62 62q30 54 30 120 0 106-75 181t-181 75v-128l-170 170 170 172v-128z" />
<glyph unicode="&#xe00f;" d="M738 468.667h72q0-108-75-189t-181-97v-140h-84v140q-106 16-181 97t-75 189h72q0-94 67-155t159-61 159 61 67 155zM512 340.667q-52 0-90 38t-38 90v256q0 52 38 90t90 38 90-38 38-90v-256q0-52-38-90t-90-38z" />
<glyph unicode="&#xe010;" d="M738 468.667h72q0-108-75-189t-181-97v-140h-84v140q-106 16-181 97t-75 189h72q0-94 67-155t159-61 159 61 67 155zM460 728.667v-264q0-20 15-35t37-15q20 0 35 14t15 36l2 264q0 22-16 37t-36 15-36-15-16-37zM512 340.667q-52 0-90 38t-38 90v256q0 52 38 90t90 38 90-38 38-90v-256q0-52-38-90t-90-38z" />
<glyph unicode="&#xe011;" d="M182 810.667l714-714-54-54-178 178q-44-28-110-38v-140h-84v140q-106 16-181 97t-75 189h72q0-94 67-155t159-61q50 0 98 22l-70 70q-16-4-28-4-52 0-90 38t-38 90v32l-256 256zM640 462.667l-256 254v8q0 52 38 90t90 38 90-38 38-90v-262zM810 468.667q0-74-38-140l-52 54q18 40 18 86h72z" />
<glyph unicode="&#xe012;" d="M768 768.667h170v-598q0-34-25-60t-59-26h-684q-34 0-59 26t-25 60v512q0 34 25 60t59 26h44l84-172h128l-84 172h84l86-172h128l-86 172h86l86-172h128z" />
<glyph unicode="&#xe013;" d="M810 468.667v86h-170v170h-86v-170h-170v-86h170v-170h86v170h170zM854 852.667q34 0 59-25t25-59v-512q0-34-25-60t-59-26h-512q-34 0-60 26t-26 60v512q0 34 26 59t60 25h512zM170 682.667v-598h598v-84h-598q-34 0-59 25t-25 59v598h84z" />
<glyph unicode="&#xe014;" d="M810 640.667v84h-426v-84h426zM640 298.667v86h-256v-86h256zM810 468.667v86h-426v-86h426zM854 852.667q34 0 59-25t25-59v-512q0-34-25-60t-59-26h-512q-34 0-60 26t-26 60v512q0 34 26 59t60 25h512zM170 682.667v-598h598v-84h-598q-34 0-59 25t-25 59v598h84z" />
<glyph unicode="&#xe015;" d="M170 682.667v-598h598v-84h-598q-34 0-59 25t-25 59v598h84zM768 640.667v84h-170v-234q-28 22-64 22-44 0-76-32t-32-76 32-75 76-31 75 31 31 75v236h128zM854 852.667q34 0 59-25t25-59v-512q0-34-25-60t-59-26h-512q-34 0-60 26t-26 60v512q0 34 26 59t60 25h512z" />
<glyph unicode="&#xe016;" d="M554 384.667v256h-84v-256h84zM554 212.667v86h-84v-86h84zM982 426.667l-104-118 14-158-154-34-80-136-146 62-146-62-80 134-154 36 14 158-104 118 104 120-14 156 154 34 80 136 146-62 146 62 80-136 154-34-14-158z" />
<glyph unicode="&#xe017;" d="M782 216.667q72 90 72 210 0 140-101 241t-241 101q-120 0-210-72zM512 84.667q120 0 210 72l-480 480q-72-90-72-210 0-140 101-241t241-101zM512 852.667q176 0 301-125t125-301-125-301-301-125-301 125-125 301 125 301 301 125z" />
<glyph unicode="&#xe018;" d="M598 724.667h170v-596h-170v596zM256 128.667v596h170v-596h-170z" />
<glyph unicode="&#xe019;" d="M640 256.667v340h-86v-340h86zM470 256.667v340h-86v-340h86zM512 852.667q176 0 301-125t125-301-125-301-301-125-301 125-125 301 125 301 301 125z" />
<glyph unicode="&#xe01a;" d="M554 256.667v340h86v-340h-86zM512 84.667q140 0 241 101t101 241-101 241-241 101-241-101-101-241 101-241 241-101zM512 852.667q176 0 301-125t125-301-125-301-301-125-301 125-125 301 125 301 301 125zM384 256.667v340h86v-340h-86z" />
<glyph unicode="&#xe01b;" d="M342 724.667l468-298-468-298v596z" />
<glyph unicode="&#xe01c;" d="M426 234.667l256 192-256 192v-384zM512 852.667q176 0 301-125t125-301-125-301-301-125-301 125-125 301 125 301 301 125z" />
<glyph unicode="&#xe01d;" d="M512 84.667q140 0 241 101t101 241-101 241-241 101-241-101-101-241 101-241 241-101zM512 852.667q176 0 301-125t125-301-125-301-301-125-301 125-125 301 125 301 301 125zM426 234.667v384l256-192z" />
<glyph unicode="&#xe01e;" d="M86 256.667v84h340v-84h-340zM768 340.667h170v-84h-170v-172h-86v172h-170v84h170v172h86v-172zM598 682.667v-86h-512v86h512zM598 512.667v-86h-512v86h512z" />
<glyph unicode="&#xe01f;" d="M810 468.667v86h-170v170h-86v-170h-170v-86h170v-170h86v170h170zM854 852.667q34 0 59-25t25-59v-512q0-34-25-60t-59-26h-512q-34 0-60 26t-26 60v512q0 34 26 59t60 25h512zM170 682.667v-598h598v-84h-598q-34 0-59 25t-25 59v598h84z" />
<glyph unicode="&#xe020;" d="M726 682.667h212v-86h-128v-384q0-52-38-90t-90-38-90 38-38 90 38 90 90 38q16 0 44-8v350zM128 256.667v84h342v-84h-342zM640 512.667v-86h-512v86h512zM640 682.667v-86h-512v86h512z" />
<glyph unicode="&#xe021;" d="M854 426.667v170h-684v-170h512v86h86v-86h86zM298 84.667q52 0 90 38t38 90-38 90-90 38-90-38-38-90 38-90 90-38zM138 676.667l540 220 28-72-352-142h500q36 0 60-25t24-61v-512q0-34-24-59t-60-25h-684q-36 0-60 25t-24 59v512q0 60 52 80z" />
<glyph unicode="&#xe022;" d="M534 212.667v32q0 44-66 70t-126 26-126-26-66-70v-32h384zM342 608.667q-38 0-67-29t-29-67 29-67 67-29 67 29 29 67-29 67-67 29zM598 724.667q18 0 30-12t12-30v-512q0-18-12-30t-30-12h-512q-18 0-31 12t-13 30v512q0 18 13 30t31 12h512zM726 128.667v596h84v-596h-84zM896 724.667h86v-596h-86v596z" />
<glyph unicode="&#xe023;" d="M726 212.667v172h84v-256h-512v-128l-170 170 170 170v-128h428zM298 640.667v-172h-84v256h512v128l170-170-170-170v128h-428z" />
<glyph unicode="&#xe024;" d="M554 298.667h-64v170h-64v44l86 42h42v-256zM726 212.667v172h84v-256h-512v-128l-170 170 170 170v-128h428zM298 640.667v-172h-84v256h512v128l170-170-170-170v128h-428z" />
<glyph unicode="&#xe025;" d="M512 724.667q142 0 242-100t100-240q0-142-101-242t-241-100-241 100-101 242h86q0-106 75-181t181-75 181 75 75 181-75 181-181 75v-172l-214 214 214 214v-172z" />
<glyph unicode="&#xe026;" d="M632 366.667l134-134 88 88v-236h-236l88 88-134 134zM618 768.667h236v-236l-88 88-536-536-60 60 536 536zM452 546.667l-60-60-222 222 60 60z" />
<glyph unicode="&#xe027;" d="M682 682.667h86v-512h-86v512zM256 170.667v512l362-256z" />
<glyph unicode="&#xe028;" d="M406 426.667l362 256v-512zM256 682.667h86v-512h-86v512z" />
<glyph unicode="&#xe029;" d="M384 468.667v86h256v-76l-154-180h154v-86h-256v78l154 178h-154zM512 84.667q124 0 211 88t87 212-87 211-211 87-211-87-87-211 87-212 211-88zM512 768.667q160 0 272-113t112-271-112-271-272-113-272 113-112 271 112 271 272 113zM938 694.667l-54-66-196 166 54 64zM336 794.667l-196-164-54 64 196 164z" />
<glyph unicode="&#xe02a;" d="M256 682.667h512v-512h-512v512z" />
<glyph unicode="&#xe02b;" d="M854 340.667v86h-428v-86h428zM854 170.667v86h-172v-86h172zM598 170.667v86h-428v-86h428zM170 426.667v-86h172v86h-172zM854 768.667q34 0 59-26t25-60v-512q0-34-25-60t-59-26h-684q-34 0-59 26t-25 60v512q0 34 25 60t59 26h684z" />
<glyph unicode="&#xe02c;" d="M512 512.667q34 0 60-26t26-60-26-60-60-26-60 26-26 60 26 60 60 26zM754 184.667q100 100 100 242t-100 242l-62-62q76-76 76-180 0-108-74-182zM512 256.667q70 0 120 50t50 120-50 120-120 50-120-50-50-120 50-120 120-50zM332 246.667q-76 76-76 180 0 108 74 182l-60 60q-100-100-100-242t100-242zM854 768.667q34 0 59-26t25-60v-512q0-34-25-60t-59-26h-684q-34 0-59 26t-25 60v512q0 34 25 60t59 26h684z" />
<glyph unicode="&#xe02d;" d="M512 320.667l256 192-256 192v-384zM854 852.667q34 0 59-25t25-59v-512q0-34-25-60t-59-26h-512q-34 0-60 26t-26 60v512q0 34 26 59t60 25h512zM170 682.667v-598h598v-84h-598q-34 0-59 25t-25 59v598h84z" />
<glyph unicode="&#xe02e;" d="M726 490.667l170 170v-468l-170 170v-150q0-18-13-30t-31-12h-512q-18 0-30 12t-12 30v428q0 18 12 30t30 12h512q18 0 31-12t13-30v-150z" />
<glyph unicode="&#xe02f;" d="M140 852.667l756-756-54-54-136 136q-12-8-24-8h-512q-18 0-30 12t-12 30v428q0 18 12 30t30 12h32l-116 116zM896 660.667v-456l-478 478h264q18 0 31-12t13-30v-150z" />
<glyph unicode="&#xe030;" d="M214 554.667h170l214 214v-684l-214 214h-170v256zM790 426.667q0-118-108-172v344q108-54 108-172z" />
<glyph unicode="&#xe031;" d="M298 554.667h172l212 214v-684l-212 214h-172v256z" />
<glyph unicode="&#xe032;" d="M512 768.667v-180l-90 90zM182 810.667l714-714-54-54-88 88q-74-58-156-78v88q50 14 96 50l-182 182v-288l-214 214h-170v256h202l-202 202zM810 426.667q0 102-59 180t-153 106v88q130-28 214-133t84-241q0-96-44-178l-64 66q22 54 22 112zM704 426.667q0-18-2-26l-104 104v94q106-52 106-172z" />
<glyph unicode="&#xe033;" d="M598 800.667q130-28 214-133t84-241-84-241-214-133v88q94 28 153 106t59 180-59 180-153 106v88zM704 426.667q0-120-106-172v344q106-52 106-172zM128 554.667h170l214 214v-684l-214 214h-170v256z" />
<glyph unicode="&#xe034;" d="M854 170.667v384h-172v-384h172zM640 384.667v170h-470v-170h470zM640 170.667v170h-470v-170h470zM854 768.667q34 0 59-26t25-60v-512q0-34-25-60t-59-26h-684q-34 0-59 26t-25 60v512q0 34 25 60t59 26h684z" />
<glyph unicode="&#xe035;" d="M618 362.667v128h86v-128h-86zM554 554.667v-256h172q18 0 30 12t12 30v172q0 18-12 30t-30 12h-172zM470 298.667v256h-64v-106h-86v106h-64v-256h64v86h86v-86h64zM810 810.667q34 0 60-26t26-60v-596q0-34-26-60t-60-26h-596q-36 0-61 26t-25 60v596q0 34 25 60t61 26h596z" />
<glyph unicode="&#xe036;" d="M672 250.667h260v-68h-364v54l252 366h-250v68h354v-54zM212 356.667h166l-84 222zM260 670.667h70l192-488h-78l-40 104h-218l-40-104h-78zM438 112.667h198l-100-100zM638 740.667h-202l100 100z" />
<glyph unicode="&#xe037;" d="M896 810.667q34 0 60-26t26-60v-512q0-34-26-59t-60-25h-170v84h170v512h-768v-512h170v-84h-170q-34 0-60 25t-26 59v512q0 34 26 60t60 26h768zM256 0.667l256 256 256-256h-512z" />
<glyph unicode="&#xe038;" d="M564 290.667q0-14 20-14 10 0 14 4l8 10q4 8 4 12v86q-4 8-4 12t-9 9-13 5q-6 0-12-6l-8-8q-6-8-6-12v-86q6-8 6-12zM644 332.667q0-26-4-34l-12-26q-14-12-22-12-4 0-13-2t-13-2q-18 0-26 4-4 2-10 6t-10 6q-18 10-18 60v30q0 26 4 34l14 26q12 12 20 12 4 0 13 2t13 2q18 0 26-4 4-2 11-6t11-6 12-26q4-12 4-34v-30zM466 256.667h-40v140l-42-12v30l76 24h6v-182zM170 384.667q0 140 100 240t242 100v172l214-214-214-214v172q-104 0-180-75t-76-181 76-181 180-75 180 75 76 181h86q0-142-101-242t-241-100-241 100-101 242z" />
<glyph unicode="&#xe039;" d="M170 384.667q0 140 100 240t242 100v172l214-214-214-214v172q-104 0-180-75t-76-181 76-181 180-75 180 75 76 181h86q0-142-101-242t-241-100-241 100-101 242zM568 290.667q0-14 20-14 10 0 14 4l8 10q4 8 4 12v86q-4 8-4 12t-9 9-13 5q-6 0-12-6l-8-8q-4-8-4-12v-86q4-8 4-12zM652 332.667q0-26-4-34l-12-26q-14-12-22-12-4 0-13-2t-13-2q-14 0-46 16-4 2-12 26-6 18-6 34v30q0 22 6 34l12 26q14 12 22 12 4 0 12 2t12 2q18 0 26-4 4-2 11-6t11-6 12-26q4-12 4-34v-30zM426 362.667q30 0 30 26v8q-4 4-4 8t-8 4h-22q-4-4-8-4t-4-8v-8h-44q0 16 11 31t25 15q2 0 10 2t10 2q24 0 48-12 16-8 16-38v-14q-4-8-4-12 0-8-8-8-4 0-14-10 18-10 22-16 8-16 8-26 0-18-4-22-2-2-6-8t-6-8q-8-8-22-8-4 0-13-2t-13-2q-16 0-20 4-2 2-10 4t-12 4q-18 10-18 42h36v-8q4-4 4-8t8-4h22q4 4 8 4t4 8v22q-4 4-4 8t-8 4h-26v30h16z" />
<glyph unicode="&#xe03a;" d="M500 358.667q-14-6-14-8l-4-6h-26l10 94h102v-30h-74l-4-38q4 0 4 4 0 2 3 3t3 3h16q16 0 22-6 2-2 8-6t8-6q18-18 18-46 0-18-4-22-2-2-6-10t-8-12q-16-16-46-16-18 0-22 4-2 2-9 4t-11 4q-18 10-18 38h34q0-20 26-20 8 0 12 4l10 8q4 8 4 12v26l-4 8-10 10q-8 4-12 4h-8zM170 384.667q0 140 100 240t242 100v172l214-214-214-214v172q-104 0-180-75t-76-181 76-181 180-75 180 75 76 181h86q0-142-101-242t-241-100-241 100-101 242z" />
<glyph unicode="&#xe03b;" d="M564 290.667q0-14 20-14 10 0 14 4l8 10q4 8 4 12v86q-4 8-4 12t-9 9-13 5q-6 0-12-6l-8-8q-6-8-6-12v-86q6-8 6-12zM648 332.667q0-26-4-34l-12-26q-14-12-22-12-4 0-13-2t-13-2q-18 0-26 4-4 2-10 6t-10 6q-18 10-18 60v30q0 26 4 34l14 26q12 12 20 12 4 0 13 2t13 2q18 0 26-4 4-2 11-6t11-6 12-26q4-12 4-34v-30zM466 256.667h-40v140l-42-12v30l76 24h6v-182zM512 724.667q142 0 242-100t100-240q0-142-101-242t-241-100-241 100-101 242h86q0-106 76-181t180-75 180 75 76 181-76 181-180 75v-172l-214 214 214 214v-172z" />
<glyph unicode="&#xe03c;" d="M572 290.667q0-14 22-14 8 0 12 4l8 10q4 8 4 12v86q0 2-2 6t-2 6q0 4-8 9t-12 5q-8 0-14-6l-8-8q-4-8-4-12v-86q4-8 4-12zM652 332.667q0-26-4-34l-12-26q-14-12-22-12-4 0-13-2t-13-2q-14 0-46 16-4 2-12 26-6 18-6 34v30q0 22 6 34l12 26q14 12 22 12 4 0 12 2t12 2q18 0 26-4 4-2 11-6t11-6 12-26q4-12 4-34v-30zM426 362.667q30 0 30 26v8q-4 4-4 8t-8 4h-22q-4-4-8-4t-4-8v-8h-44q0 16 11 31t25 15q2 0 10 2t10 2q24 0 48-12 16-8 16-38v-14q-4-8-4-12 0-8-8-8-4 0-14-10 18-10 22-16 8-16 8-26 0-18-4-22-2-2-6-8t-6-8q-8-8-22-8-4 0-13-2t-13-2q-16 0-20 4-2 2-10 4t-12 4q-18 10-18 42h36v-8q4-4 4-8t8-4h22q4 4 8 4t4 8v22q-4 4-4 8t-8 4h-26v30h16zM512 724.667q142 0 242-100t100-240q0-142-101-242t-241-100-241 100-101 242h86q0-106 76-181t180-75 180 75 76 181-76 181-180 75v-172l-214 214 214 214v-172z" />
<glyph unicode="&#xe03d;" d="M504 358.667q-14-6-14-8l-4-6h-30l10 94h102v-30h-74l-4-38q4 0 4 4 0 2 3 3t3 3h16q16 0 22-6 2-2 8-6t8-6q18-18 18-46 0-18-4-22-2-2-6-10t-8-12-9-7-7-5q-4-4-26-4-18 0-22 4-2 2-9 4t-11 4q-18 10-18 38h34q0-20 26-20 8 0 12 4l10 8q4 8 4 12v26l-4 8-10 10q-8 4-12 4h-8zM512 724.667q142 0 242-100t100-240q0-142-101-242t-241-100-241 100-101 242h86q0-106 76-181t180-75 180 75 76 181-76 181-180 75v-172l-214 214 214 214v-172z" />
<glyph unicode="&#xe03e;" d="M768 298.667v-86h-86v86h86zM768 468.667v-84h-86v84h86zM854 128.667v426h-342v-86h86v-84h-86v-86h86v-86h-86v-84h342zM426 640.667v84h-84v-84h84zM426 468.667v86h-84v-86h84zM426 298.667v86h-84v-86h84zM426 128.667v84h-84v-84h84zM256 640.667v84h-86v-84h86zM256 468.667v86h-86v-86h86zM256 298.667v86h-86v-86h86zM256 128.667v84h-86v-84h86zM512 640.667h426v-598h-852v768h426v-170z" />
<glyph unicode="&#xe03f;" d="M282 478.667q96-186 282-282l94 94q20 20 44 10 72-24 152-24 18 0 30-12t12-30v-150q0-18-12-30t-30-12q-300 0-513 213t-213 513q0 18 12 30t30 12h150q18 0 30-12t12-30q0-80 24-152 8-26-10-44z" />
<glyph unicode="&#xe040;" d="M512 554.667q-104 0-196-30v-132q0-30-24-40-64-30-114-78-12-12-30-12t-30 12l-106 106q-12 12-12 30t12 30q210 200 500 200t500-200q12-12 12-30t-12-30l-106-106q-12-12-30-12t-30 12q-50 48-114 78-24 10-24 38v132q-100 32-196 32z" />
<glyph unicode="&#xe041;" d="M384 724.667h426v-426h-84v282l-496-496-60 60 496 496h-282v84z" />
<glyph unicode="&#xe042;" d="M320 596.667l192 192 192-192h-150v-272l-256-256-60 60 232 230v238h-150zM726 68.667l-146 144 60 60 146-144z" />
<glyph unicode="&#xe043;" d="M836 640.667l60-60-384-384-298 298v-196h-86v342h342v-86h-196l238-238z" />
<glyph unicode="&#xe044;" d="M854 708.667l-496-496h282v-84h-426v426h84v-282l496 496z" />
<glyph unicode="&#xe045;" d="M426 768.667l-98-98 226-226v-360h-84v324l-202 202-98-98v256h256zM598 768.667h256v-256l-98 98-124-124-60 60 124 124z" />
<glyph unicode="&#xe046;" d="M768 596.667v86h-512v-86h512zM598 340.667v86h-342v-86h342zM256 554.667v-86h512v86h-512zM854 852.667q34 0 59-25t25-59v-512q0-34-25-60t-59-26h-598l-170-170v768q0 34 25 59t59 25h684z" />
<glyph unicode="&#xe047;" d="M298 640.667h598v-86h-598v86zM128 212.667v86h598v-86h-598zM214 384.667v84h596v-84h-596z" />
<glyph unicode="&#xe048;" d="M768 596.667v86h-512v-86h512zM768 468.667v86h-512v-86h512zM768 340.667v86h-512v-86h512zM938 768.667v-768l-170 170h-598q-34 0-59 26t-25 60v512q0 34 25 59t59 25h684q34 0 59-25t25-59z" />
<glyph unicode="&#xe049;" d="M726 212.667v64q0 48-73 78t-141 30-141-30-73-78v-64h428zM512 650.667q-40 0-68-28t-28-68 28-68 68-28 68 28 28 68-28 68-68 28zM854 768.667q34 0 59-26t25-60v-512q0-34-25-60t-59-26h-684q-34 0-59 26t-25 60v512q0 34 25 60t59 26h684zM170-85.333v86h684v-86h-684zM854 938.667v-86h-684v86h684z" />
<glyph unicode="&#xe04a;" d="M854 276.667q18 0 30-12t12-30v-150q0-18-12-30t-30-12q-300 0-513 213t-213 513q0 18 12 30t30 12h150q18 0 30-12t12-30q0-80 24-152 8-26-10-44l-94-94q94-184 282-282l94 94q18 18 44 10 72-24 152-24zM854 724.667v44h-44v-44h44zM768 810.667h128v-128h-86v-86h-42v214zM640 724.667v-128h-128v44h86v42h-86v128h128v-42h-86v-44h86zM726 810.667v-214h-44v214h44z" />
<glyph unicode="&#xe04b;" d="M512 896.667q34 0 60-26t26-60-26-60-60-26-60 26-26 60 26 60 60 26zM512 640.667q34 0 60-26t26-60-26-60-60-26-60 26-26 60 26 60 60 26zM768 640.667q34 0 60-26t26-60-26-60-60-26-60 26-26 60 26 60 60 26zM768 384.667q34 0 60-26t26-60-26-60-60-26-60 26-26 60 26 60 60 26zM512 384.667q34 0 60-26t26-60-26-60-60-26-60 26-26 60 26 60 60 26zM768 724.667q-34 0-60 26t-26 60 26 60 60 26 60-26 26-60-26-60-60-26zM256 384.667q34 0 60-26t26-60-26-60-60-26-60 26-26 60 26 60 60 26zM256 640.667q34 0 60-26t26-60-26-60-60-26-60 26-26 60 26 60 60 26zM256 896.667q34 0 60-26t26-60-26-60-60-26-60 26-26 60 26 60 60 26zM512 128.667q34 0 60-26t26-60-26-60-60-26-60 26-26 60 26 60 60 26z" />
<glyph unicode="&#xe04c;" d="M854 596.667v86l-342-214-342 214v-86l342-212zM854 768.667q34 0 59-26t25-60v-512q0-34-25-60t-59-26h-684q-34 0-59 26t-25 60v512q0 34 25 60t59 26h684z" />
<glyph unicode="&#xe04d;" d="M726 426.667q0-18-13-30t-31-12h-426l-170-172v598q0 18 12 30t30 12h554q18 0 31-12t13-30v-384zM896 682.667q18 0 30-12t12-30v-640l-170 170h-470q-18 0-30 12t-12 30v86h554v384h86z" />
<glyph unicode="&#xe04e;" d="M682 212.667h128l-170-170-170 170h128v300h84v-300zM384 810.667l170-170h-128v-300h-84v300h-128z" />
<glyph unicode="&#xe04f;" d="M512 720.667l-98-96-60 60 158 158 242-242q76-76 94-183t-26-201l-310 308v196zM512 102.667v206l-204 204q-52-68-52-154 0-104 76-180t180-76zM882 48.667l14-16-54-54-116 116q-94-76-214-76-142 0-242 100-92 94-99 225t75 231l-118 118 54 54q598-598 700-698z" />
<glyph unicode="&#xe050;" d="M642 500.667q40 40 40 96 0 70-50 121t-120 51-120-51-50-121h84q0 34 26 60t60 26 60-26 26-60-26-60l-52-54q-50-54-50-120v-22h84q0 68 50 122zM554 170.667v86h-84v-86h84zM810 852.667q34 0 60-25t26-59v-598q0-34-26-60t-60-26h-170l-128-128-128 128h-170q-36 0-61 26t-25 60v598q0 34 25 59t61 25h596z" />
<glyph unicode="&#xe051;" d="M500 448.667q218-216 354-352l-54-54-144 142q-32-48-68-94t-56-68l-20-22q-12 14-32 37t-72 92-91 134-71 147-32 144q0 22 8 66l-136 136 54 54 356-356zM512 660.667q-46 0-78-36l-138 136q88 92 216 92 124 0 211-87t87-211q0-96-72-234l-154 156q34 30 34 78 0 44-31 75t-75 31z" />
<glyph unicode="&#xe052;" d="M512 448.667q44 0 75 31t31 75-31 75-75 31-75-31-31-75 31-75 75-31zM512 852.667q124 0 211-87t87-211q0-62-31-142t-75-150-87-131-73-97l-32-34q-12 14-32 37t-72 92-91 134-71 147-32 144q0 124 87 211t211 87z" />
<glyph unicode="&#xe053;" d="M768 596.667v86h-512v-86h512zM768 468.667v86h-512v-86h512zM768 340.667v86h-512v-86h512zM854 852.667q34 0 59-25t25-59v-512q0-34-25-60t-59-26h-598l-170-170v768q0 34 25 59t59 25h684z" />
<glyph unicode="&#xe054;" d="M854 852.667q34 0 59-25t25-59v-512q0-34-25-60t-59-26h-598l-170-170v768q0 34 25 59t59 25h684z" />
<glyph unicode="&#xe055;" d="M854 256.667v512h-684v-598l86 86h598zM854 852.667q34 0 59-25t25-59v-512q0-34-25-60t-59-26h-598l-170-170v768q0 34 25 59t59 25h684z" />
<glyph unicode="&#xe056;" d="M156 772.667l746-744-56-56-80 82q-24-12-40-12h-428q-34 0-59 26t-25 60v478l-112 112zM810 724.667v-498l-484 484 100 100h300q34 0 59-26t25-60z" />
<glyph unicode="&#xe057;" d="M282 478.667q96-186 282-282l94 94q20 20 44 10 72-24 152-24 18 0 30-12t12-30v-150q0-18-12-30t-30-12q-300 0-513 213t-213 513q0 18 12 30t30 12h150q18 0 30-12t12-30q0-80 24-152 8-26-10-44z" />
<glyph unicode="&#xe058;" d="M140 832.667l42-44 714-714-54-54-320 322h-2l-8-2q-34 0-60 26t-26 60l2 8-68 68q-18-36-18-76 0-98 84-148l-42-74q-58 34-93 93t-35 129q0 76 40 138l-60 62q-66-92-66-200 0-92 46-171t124-125l-42-74q-98 56-155 155t-57 215q0 148 88 262l-88 90zM512 768.667q-86 0-160-40l-62 62q100 62 222 62 176 0 301-125t125-301q0-122-62-222l-64 62q42 78 42 160 0 140-101 241t-241 101zM750 330.667l-70 70q2 8 2 26 0 70-50 120t-120 50q-18 0-26-2l-70 70q44 18 96 18 106 0 181-75t75-181q0-52-18-96z" />
<glyph unicode="&#xe059;" d="M762 340.667q-16 42-16 86t16 86h70l64 84-84 86q-88-66-118-170-12-42-12-86t12-86q30-104 118-170l84 86-64 84h-70zM598 170.667v42q0 58-88 95t-168 37-168-37-88-95v-42h512zM342 682.667q-52 0-90-38t-38-90 38-90 90-38 90 38 38 90-38 90-90 38zM938 810.667q34 0 60-26t26-60v-596q0-34-26-60t-60-26h-852q-34 0-60 26t-26 60v596q0 34 26 60t60 26h852z" />
<glyph unicode="&#xe05a;" d="M274 520.667q-148 148-152 150l60 62 152-152zM554 852.667v-212h-84v212h84zM902 670.667l-152-150-60 60 152 152zM1012 226.667q12-12 12-30t-12-30l-106-106q-12-12-30-12t-30 12q-56 52-114 80-24 10-24 38v132q-92 30-196 30t-196-30v-132q0-30-24-40-64-30-114-78-12-12-30-12t-30 12l-106 106q-12 12-12 30t12 30q210 200 500 200t500-200z" />
<glyph unicode="&#xe05b;" d="M640 84.667v342h-256v-342h256zM634 510.667q20 0 34-14t14-34v-414q0-20-14-34t-34-14h-244q-20 0-34 14t-14 34v414q0 20 14 35t34 15zM512 896.667q192 0 330-138l-60-60q-112 112-270 112t-270-112l-60 60q138 138 330 138zM298 636.667q88 88 214 88t214-88l-62-60q-62 62-152 62t-152-62z" />
<glyph unicode="&#xe05c;" d="M810 640.667h-596v-428h596v428zM44 640.667q0 34 25 59t59 25h768q34 0 60-25t26-59v-428q0-34-26-59t-60-25h-768q-34 0-60 25t-26 59z" />
<glyph unicode="&#xe05d;" d="M726 128.667v596h-428v-596h428zM726 894.667q34 0 59-25t25-59v-768q0-34-25-60t-59-26h-428q-34 0-59 26t-25 60v768q0 34 25 60t59 26z" />
<glyph unicode="&#xe05e;" d="M810 640.667h-596v-428h596v428zM44 640.667q0 34 25 59t59 25h768q34 0 60-25t26-59v-428q0-34-26-59t-60-25h-768q-34 0-60 25t-26 59z" />
<glyph unicode="&#xe05f;" d="M726 128.667v596h-428v-596h428zM726 894.667q34 0 59-25t25-59v-768q0-34-25-60t-59-26h-428q-34 0-59 26t-25 60v768q0 34 25 60t59 26z" />
<glyph unicode="&#xe060;" d="M768 768.667l170-172h-128v-298q0-70-50-120t-120-50-120 50-50 120v298q0 34-26 60t-60 26-60-26-26-60v-298h128l-170-170-170 170h128v298q0 70 50 121t120 51 120-51 50-121v-298q0-34 26-60t60-26 60 26 26 60v298h-128z" />
<glyph unicode="&#xe061;" d="M726 468.667v86h-86v-86h86zM554 468.667v86h-84v-86h84zM384 468.667v86h-86v-86h86zM854 852.667q34 0 59-25t25-59v-512q0-34-25-60t-59-26h-598l-170-170v768q0 34 25 59t59 25h684z" />
<glyph unicode="&#xe062;" d="M790 298.667q62 0 105 44t43 106-43 105-105 43-106-43-44-105 44-106 106-44zM234 298.667q62 0 106 44t44 106-44 105-106 43-105-43-43-105 43-106 105-44zM790 682.667q98 0 166-68t68-166-68-167-166-69h-556q-98 0-166 69t-68 167 68 166 166 68 167-68 69-166q0-86-54-150h192q-54 64-54 150 0 98 69 166t167 68z" />
<glyph unicode="&#xe063;" d="M298 340.667q34 0 60 26t26 60-26 60-60 26-59-26-25-60 25-60 59-26zM540 512.667h442v-172h-86v-170h-170v170h-186q-26-76-92-123t-150-47q-106 0-181 75t-75 181 75 181 181 75q84 0 150-47t92-123z" />
<glyph unicode="&#xe064;" d="M810 896.667q34 0 60-26t26-60v-768q0-34-26-60t-60-26h-426q-34 0-60 26t-26 60v128h86v-86h426v684h-426v-86h-86v128q0 34 26 60t60 26h426zM554 588.667l-170-170 170-172-42-42-170 170-172-170-42 42 170 172-170 170 42 42 172-170 170 170z" />
<glyph unicode="&#xe065;" d="M406 468.667v64q0 24-19 40t-45 16-45-16-19-40v-64h128zM460 468.667q20 0 36-16t16-38v-150q0-20-17-36t-39-16h-234q-20 0-36 17t-16 39v150q0 20 16 35t36 15v64q0 44 37 76t83 32 82-32 36-76v-64zM810 896.667q34 0 60-26t26-60v-768q0-34-26-60t-60-26h-426q-34 0-60 26t-26 60v128h86v-86h426v684h-426v-86h-86v128q0 34 26 60t60 26h426z" />
<glyph unicode="&#xe066;" d="M598 84.667v684h-428v-684h428zM598 896.667q34 0 59-26t25-60v-768q0-34-25-60t-59-26h-428q-34 0-59 26t-25 60v768q0 34 25 60t59 26h428zM768 520.667q40-42 40-94t-40-90l-42 44q36 50 0 98zM858 610.667q80-76 80-183t-80-181l-44 44q58 62 58 141t-58 135z" />
<glyph unicode="&#xe067;" d="M810 896.667q34 0 60-26t26-60v-768q0-34-26-60t-60-26h-426q-34 0-60 26t-26 60v128h86v-86h426v684h-426v-86h-86v128q0 34 26 60t60 26h426zM342 340.667q34 0 59 26t25 60-25 60-59 26-60-26-26-60 26-60 60-26zM504 404.667l46-38q8-8 4-12l-42-74q-4-4-12-4l-56 22q-28-18-38-22l-10-54q-10-10-12-10h-86q-4 0-7 4t-1 6l-8 54q-10 4-38 22l-60-18q-4-4-14 6l-42 72q0 8 4 16l48 34v44l-48 34q-8 8-4 12l42 74q4 4 14 4l54-22q26 18 40 22l8 54q10 10 12 10h86q12 0 12-10l10-54q10-4 38-22l56 18q4 2 12-6l42-72q0-8-4-12l-46-34v-44z" />
<glyph unicode="&#xe068;" d="M426 426.667h-84l170 170 170-170h-84v-170h-172v170zM896 126.667v600h-768v-600h768zM896 810.667q36 0 61-25t25-61v-596q0-36-25-61t-61-25h-768q-36 0-61 25t-25 61v596q0 36 25 61t61 25h768z" />
<glyph unicode="&#xe069;" d="M810 384.667h-256v-256h-84v256h-256v84h256v256h84v-256h256v-84z" />
<glyph unicode="&#xe06a;" d="M726 384.667v84h-172v172h-84v-172h-172v-84h172v-172h84v172h172zM810 810.667q34 0 60-26t26-60v-596q0-34-26-60t-60-26h-596q-36 0-61 26t-25 60v596q0 34 25 60t61 26h596z" />
<glyph unicode="&#xe06b;" d="M726 384.667v84h-172v172h-84v-172h-172v-84h172v-172h84v172h172zM512 852.667q176 0 301-125t125-301-125-301-301-125-301 125-125 301 125 301 301 125z" />
<glyph unicode="&#xe06c;" d="M512 84.667q140 0 241 101t101 241-101 241-241 101-241-101-101-241 101-241 241-101zM512 852.667q176 0 301-125t125-301-125-301-301-125-301 125-125 301 125 301 301 125zM554 640.667v-172h172v-84h-172v-172h-84v172h-172v84h172v172h84z" />
<glyph unicode="&#xe06d;" d="M218 724.667h588l-40 44h-512zM512 192.667l234 234h-148v86h-172v-86h-148zM876 714.667q20-24 20-54v-532q0-34-26-60t-60-26h-596q-34 0-60 26t-26 60v532q0 30 20 54l58 72q20 24 50 24h512q30 0 50-24z" />
<glyph unicode="&#xe06e;" d="M810 272.667l-152 154 152 154-60 60-152-154-154 154-60-60 154-154-154-154 60-60 154 154 152-154zM938 810.667q34 0 60-26t26-60v-596q0-34-26-60t-60-26h-640q-40 0-68 38l-230 346 230 346q28 38 68 38h640z" />
<glyph unicode="&#xe06f;" d="M512 84.667q140 0 241 101t101 241q0 120-72 210l-480-480q90-72 210-72zM170 426.667q0-120 72-210l480 480q-90 72-210 72-140 0-241-101t-101-241zM512 852.667q176 0 301-125t125-301-125-301-301-125-301 125-125 301 125 301 301 125z" />
<glyph unicode="&#xe070;" d="M810 664.667l-238-238 238-238-60-60-238 238-238-238-60 60 238 238-238 238 60 60 238-238 238 238z" />
<glyph unicode="&#xe071;" d="M810 42.667v598h-468v-598h468zM810 724.667q34 0 60-25t26-59v-598q0-34-26-60t-60-26h-468q-34 0-60 26t-26 60v598q0 34 26 59t60 25h468zM682 896.667v-86h-512v-598h-84v598q0 34 25 60t59 26h512z" />
<glyph unicode="&#xe072;" d="M810 810.667h128v-42l-298-300-86 86zM512 404.667q22 0 22 22t-22 22-22-22 22-22zM256 84.667q34 0 60 25t26 61-26 61-60 25-60-25-26-61 26-61 60-25zM256 596.667q34 0 60 25t26 61-26 61-60 25-60-25-26-61 26-61 60-25zM412 612.667l526-528v-42h-128l-298 298-100-100q14-30 14-70 0-70-50-120t-120-50-120 50-50 120 50 120 120 50q40 0 70-14l100 100-100 100q-30-14-70-14-70 0-120 50t-50 120 50 120 120 50 120-50 50-120q0-40-14-70z" />
<glyph unicode="&#xe073;" d="M810 84.667v684h-84v-128h-428v128h-84v-684h596zM512 852.667q-18 0-30-12t-12-30 12-30 30-12 30 12 12 30-12 30-30 12zM810 852.667q34 0 60-25t26-59v-684q0-34-26-59t-60-25h-596q-34 0-60 25t-26 59v684q0 34 26 59t60 25h178q14 38 46 62t74 24 74-24 46-62h178z" />
<glyph unicode="&#xe074;" d="M884 638.667l-78-78-160 160 78 78q12 12 30 12t30-12l100-100q12-12 12-30t-12-30zM128 202.667l472 472 160-160-472-472h-160v160z" />
<glyph unicode="&#xe075;" d="M512 384.667l352 220-352 206-352-206zM938 596.667v-426q0-34-25-60t-59-26h-684q-34 0-59 26t-25 60v426q0 50 40 74l386 226 386-226q40-24 40-74z" />
<glyph unicode="&#xe076;" d="M256 384.667v84h512v-84h-512zM128 682.667h768v-86h-768v86zM426 170.667v86h172v-86h-172z" />
<glyph unicode="&#xe077;" d="M614 682.667h240v-426h-300l-16 84h-240v-298h-84v726h384z" />
<glyph unicode="&#xe078;" d="M512 596.667v172l342-342-342-342v172h-342v340h342z" />
<glyph unicode="&#xe079;" d="M592 146.667q28 0 56 37t36 113q-60-16-92-54t-32-64q0-14 10-23t22-9zM196 644.667l-74 72q20 24 36 40 54 54 116 54 38 0 73-30t35-92q0-60-56-140-56-78-78-150-12-34-7-58t21-24q18 0 48 36 44 44 98 116 96 120 210 120 84 0 125-55t47-123h106v-106h-104q-12-138-74-200t-128-62q-56 0-96 39t-40 93q0 66 60 138t170 92q-2 16-3 22t-6 19-12 19-21 11-34 5q-56 0-174-146-34-42-47-57t-37-35-46-26q-70-22-120 26t-50 120q0 30 11 66t29 70 34 61 31 49 17 24q34 56 12 64-14 6-72-52z" />
<glyph unicode="&#xe07a;" d="M682 512.667l-170-172-170 172h84v128h172v-128h84zM810 298.667v426h-598v-426h172q0-52 38-90t90-38 90 38 38 90h170zM810 810.667q34 0 60-26t26-60v-596q0-34-26-60t-60-26h-598q-34 0-59 26t-25 60v596q0 34 25 60t59 26h598z" />
<glyph unicode="&#xe07b;" d="M726 640.667q88 0 150-63t62-151-62-151-150-63h-172v82h172q54 0 93 39t39 93-39 93-93 39h-172v82h172zM342 384.667v84h340v-84h-340zM166 426.667q0-54 39-93t93-39h172v-82h-172q-88 0-150 63t-62 151 62 151 150 63h172v-82h-172q-54 0-93-39t-39-93z" />
<glyph unicode="&#xe07c;" d="M854 596.667v86l-342-214-342 214v-86l342-212zM854 768.667q34 0 59-26t25-60v-512q0-34-25-60t-59-26h-684q-34 0-59 26t-25 60v512q0 34 25 60t59 26h684z" />
<glyph unicode="&#xe07d;" d="M854 596.667v86l-342-214-342 214v-86l342-212zM854 768.667q34 0 59-26t25-60v-512q0-34-25-60t-59-26h-684q-34 0-59 26t-25 60v512q0 34 25 60t59 26h684z" />
<glyph unicode="&#xe07e;" d="M786 486.667l152 154v-384h-384l156 154q-96 80-220 80-112 0-201-65t-123-169l-100 32q44 136 161 222t263 86q170 0 296-110z" />
<glyph unicode="&#xe07f;" d="M810 384.667h-596v84h596v-84z" />
<glyph unicode="&#xe080;" d="M726 384.667v84h-428v-84h428zM512 852.667q176 0 301-125t125-301-125-301-301-125-301 125-125 301 125 301 301 125z" />
<glyph unicode="&#xe081;" d="M512 84.667q140 0 241 101t101 241-101 241-241 101-241-101-101-241 101-241 241-101zM512 852.667q176 0 301-125t125-301-125-301-301-125-301 125-125 301 125 301 301 125zM298 468.667h428v-84h-428v84z" />
<glyph unicode="&#xe082;" d="M426 554.667q208-30 321-159t149-311q-154 218-470 218v-174l-298 298 298 298v-170z" />
<glyph unicode="&#xe083;" d="M554 554.667q208-30 321-159t149-311q-154 218-470 218v-174l-298 298 298 298v-170zM298 596.667l-170-170 170-170v-128l-298 298 298 298v-128z" />
<glyph unicode="&#xe084;" d="M554 384.667v256h-84v-256h84zM512 200.667q22 0 39 17t17 39-17 38-39 16-39-16-17-38 17-39 39-17zM672 810.667l224-224v-320l-224-224h-320l-224 224v320l224 224h320z" />
<glyph unicode="&#xe085;" d="M640 554.667v170h-426v-170h426zM512 128.667q52 0 90 38t38 90-38 90-90 38-90-38-38-90 38-90 90-38zM726 810.667l170-170v-512q0-34-26-60t-60-26h-596q-36 0-61 26t-25 60v596q0 34 25 60t61 26h512z" />
<glyph unicode="&#xe086;" d="M384 554.667v-256h256v256h-256zM298 212.667v428h428v-428h-428zM640 724.667v86h86v-86h-86zM640 42.667v86h86v-86h-86zM810 212.667v86h86v-86h-86zM810 554.667v86h86v-86h-86zM810 42.667v86h86q0-34-26-60t-60-26zM810 384.667v84h86v-84h-86zM470 42.667v86h84v-86h-84zM384 810.667v-86h-86v86h86zM128 212.667v86h86v-86h-86zM214 42.667q-34 0-60 26t-26 60h86v-86zM810 810.667q34 0 60-26t26-60h-86v86zM554 810.667v-86h-84v86h84zM128 554.667v86h86v-86h-86zM298 42.667v86h86v-86h-86zM128 384.667v84h86v-84h-86zM128 724.667q0 34 26 60t60 26v-86h-86z" />
<glyph unicode="&#xe087;" d="M86 42.667v298l640 86-640 86v298l896-384z" />
<glyph unicode="&#xe088;" d="M128 384.667v84h512v-84h-512zM128 682.667h768v-86h-768v86zM128 170.667v86h256v-86h-256z" />
<glyph unicode="&#xe089;" d="M512 682.667l-80-214h160zM406 392.667l-40-94h-88l202 470h64l202-470h-88l-40 94h-212zM214 212.667h596v-84h-596v84z" />
<glyph unicode="&#xe08a;" d="M534 596.667q146 0 262-86t162-222l-100-32q-34 104-123 169t-201 65q-124 0-220-80l156-154h-384v384l152-154q126 110 296 110z" />
<glyph unicode="&#xe08b;" d="M680 148.667h90l-218 556h-80l-218-556h90l48 128h240zM854 852.667q34 0 59-25t25-59v-684q0-34-25-59t-59-25h-684q-34 0-59 25t-25 59v684q0 34 25 59t59 25h684zM424 362.667l88 236 88-236h-176z" />
<glyph unicode="&#xe08c;" d="M512 84.667q124 0 211 88t87 212-87 211-211 87-211-87-87-211 87-212 211-88zM512 768.667q160 0 272-113t112-271-112-271-272-113-272 113-112 271 112 271 272 113zM534 596.667v-224l170-100-32-52-202 120v256h64zM336 794.667l-196-164-54 64 196 164zM938 694.667l-54-66-196 166 54 64z" />
<glyph unicode="&#xe08d;" d="M512 84.667q124 0 211 88t87 212-87 211-211 87-211-87-87-211 87-212 211-88zM512 768.667q160 0 272-112t112-272-112-272-272-112-272 112-112 272 112 272 272 112zM534 596.667v-226l170-102-34-52-200 124v256h64zM338 792.667l-198-162-54 64 196 162zM938 694.667l-54-64-198 168 56 64z" />
<glyph unicode="&#xe08e;" d="M534 640.667v-224l192-114-32-54-224 136v256h64zM512 84.667q140 0 241 101t101 241-101 241-241 101-241-101-101-241 101-241 241-101zM512 852.667q176 0 301-125t125-301-125-301-301-125-301 125-125 301 125 301 301 125z" />
<glyph unicode="&#xe08f;" d="M554 554.667v-128h128v-86h-128v-128h-84v128h-128v86h128v128h84zM512 84.667q124 0 211 88t87 212-87 211-211 87-211-87-87-211 87-212 211-88zM512 768.667q160 0 272-113t112-271-112-271-272-113-272 113-112 271 112 271 272 113zM938 694.667l-54-66-196 166 54 64zM336 794.667l-196-164-54 64 196 164z" />
<glyph unicode="&#xe090;" d="M128 714.667l54 54 672-672-54-54-246 244v-158l86-64v-64l-150 42-148-42v64l84 64v234l-340-106v84l254 160zM554 554.667l342-214v-84l-136 42-334 334v156q0 26 19 45t45 19 45-19 19-45v-234z" />
<glyph unicode="&#xe091;" d="M896 256.667l-342 106v-234l86-64v-64l-150 42-148-42v64l84 64v234l-340-106v84l340 214v234q0 26 19 45t45 19 45-19 19-45v-234l342-214v-84z" />
<glyph unicode="&#xe092;" d="M554 340.667v214h-84v-214h84zM554 170.667v86h-84v-86h84zM668 768.667q24 0 41-17t17-41v-654q0-24-17-40t-41-16h-312q-24 0-41 16t-17 40v654q0 24 17 41t41 17h70v84h172v-84h70z" />
<glyph unicode="&#xe093;" d="M470 84.667l170 320h-86v236l-170-320h86v-236zM668 768.667q24 0 41-17t17-41v-654q0-24-17-40t-41-16h-312q-24 0-41 16t-17 40v654q0 24 17 41t41 17h70v84h172v-84h70z" />
<glyph unicode="&#xe094;" d="M668 768.667q24 0 41-17t17-41v-654q0-24-17-40t-41-16h-312q-24 0-41 16t-17 40v654q0 24 17 41t41 17h70v84h172v-84h70z" />
<glyph unicode="&#xe095;" d="M668 768.667q24 0 41-17t17-41v-654q0-24-17-40t-41-16h-312q-24 0-41 16t-17 40v654q0 24 17 41t41 17h70v84h172v-84h70z" />
<glyph unicode="&#xe096;" d="M610 396.667q30 30 30 72 0 52-38 90t-90 38-90-38-38-90h64q0 26 18 45t46 19 46-19 18-45-18-44l-40-40q-40-40-40-86h68q0 32 36 68zM552 172.667v82h-80v-82h80zM668 768.667q24 0 41-17t17-41v-654q0-24-17-40t-41-16h-312q-24 0-41 16t-17 40v654q0 24 17 41t41 17h70v84h172v-84h70z" />
<glyph unicode="&#xe097;" d="M634 242.667l-80 82v-162zM554 690.667v-162l80 82zM756 610.667l-184-184 184-184-244-242h-42v324l-196-196-60 60 238 238-238 238 60 60 196-196v324h42z" />
<glyph unicode="&#xe098;" d="M810 512.667l86-86-86-86-84 86zM634 242.667l-80 82v-162zM554 690.667v-162l80 82zM756 610.667l-184-184 184-184-244-242h-42v324l-196-196-60 60 238 238-238 238 60 60 196-196v324h42zM298 426.667l-84-86-86 86 86 86z" />
<glyph unicode="&#xe099;" d="M554 162.667l80 80-80 82v-162zM230 768.667l624-624-60-60-98 98-184-182h-42v324l-196-196-60 60 238 238-282 282zM554 690.667v-138l-84 86v214h42l244-242-130-130-60 60 68 70z" />
<glyph unicode="&#xe09a;" d="M550 242.667l-80 82v-162zM470 690.667v-162l80 82zM670 610.667l-184-184 184-184-244-242h-42v324l-196-196-60 60 238 238-238 238 60 60 196-196v324h42zM834 652.667q62-100 62-222t-66-226l-50 50q42 84 42 172t-42 172zM608 426.667l98 98q20-50 20-98 0-50-20-100z" />
<glyph unicode="&#xe09b;" d="M610 256.667h82l-138 384h-84l-138-384h82l30 84h136zM854 568.667l140-142-140-142v-200h-200l-142-140-142 140h-200v200l-140 142 140 142v200h200l142 140 142-140h200v-200zM462 398.667l50 156 50-156h-100z" />
<glyph unicode="&#xe09c;" d="M512 596.667q70 0 120-50t50-120-50-120-120-50-120 50-50 120 50 120 120 50zM512 170.667q106 0 181 75t75 181-75 181-181 75-181-75-75-181 75-181 181-75zM854 568.667l140-142-140-142v-200h-200l-142-140-142 140h-200v200l-140 142 140 142v200h200l142 140 142-140h200v-200z" />
<glyph unicode="&#xe09d;" d="M512 170.667q106 0 181 75t75 181-75 181-181 75-181-75-75-181 75-181 181-75zM854 284.667v-200h-200l-142-140-142 140h-200v200l-140 142 140 142v200h200l142 140 142-140h200v-200l140-142z" />
<glyph unicode="&#xe09e;" d="M512 170.667q106 0 181 75t75 181-75 181-181 75v-512zM854 284.667v-200h-200l-142-140-142 140h-200v200l-140 142 140 142v200h200l142 140 142-140h200v-200l140-142z" />
<glyph unicode="&#xe09f;" d="M512 128.667q144 0 232 112l112-66q-128-174-344-174-176 0-301 125t-125 301q0 166 111 287t273 137v-128q-108-16-182-100t-74-196q0-124 87-211t211-87zM554 850.667q162-16 273-137t111-287q0-96-36-174l-112 66q20 56 20 108 0 112-74 196t-182 100v128z" />
<glyph unicode="&#xe0a0;" d="M726 128.667v84h84v-170q0-34-25-60t-59-26h-428q-34 0-59 26t-25 60v170h84v-84h428zM426 290.667l-60-60-196 196 196 196 60-60-134-136zM658 230.667l-60 60 134 136-134 136 60 60 196-196zM298 724.667v-84h-84v170q0 34 25 60t59 26l428-2q34 0 59-25t25-59v-170h-84v84h-428z" />
<glyph unicode="&#xe0a1;" d="M938 212.667v300h-170v-300h170zM982 596.667q18 0 30-12t12-30v-426q0-18-12-31t-30-13h-256q-18 0-31 13t-13 31v426q0 18 13 30t31 12h256zM170 682.667v-470h428v-128h-598v128h86v470q0 34 25 60t59 26h768v-86h-768z" />
<glyph unicode="&#xe0a2;" d="M298 426.667v-86h-84v86h84zM298 596.667v-84h-84v84h84zM810 426.667v-86h-468v86h468zM810 596.667v-84h-468v84h468zM896 212.667v512h-768v-512h768zM896 810.667q34 0 60-26t26-60l-2-512q0-34-25-59t-59-25h-214v-86h-340v86h-214q-34 0-60 25t-26 59v512q0 34 26 60t60 26h768z" />
<glyph unicode="&#xe0a3;" d="M512 128.667q124 0 211 87t87 211-87 211-211 87-211-87-87-211 87-211 211-87zM894 468.667h88v-84h-88q-14-134-110-230t-230-110v-88h-84v88q-134 14-230 110t-110 230h-88v84h88q14 134 110 230t230 110v88h84v-88q134-14 230-110t110-230zM512 596.667q70 0 120-50t50-120-50-120-120-50-120 50-50 120 50 120 120 50z" />
<glyph unicode="&#xe0a4;" d="M512 128.667q124 0 211 87t87 211-87 211-211 87-211-87-87-211 87-211 211-87zM894 468.667h88v-84h-88q-14-134-110-230t-230-110v-88h-84v88q-134 14-230 110t-110 230h-88v84h88q14 134 110 230t230 110v88h84v-88q134-14 230-110t110-230z" />
<glyph unicode="&#xe0a5;" d="M694 190.667l-418 418q-62-82-62-182 0-124 87-211t211-87q100 0 182 62zM128 756.667l54 54 714-714-54-54-88 88q-90-74-200-86v-88h-84v88q-134 14-230 110t-110 230h-88v84h88q12 110 86 200zM894 468.667h88v-84h-88q-10-78-42-136l-64 64q22 54 22 114 0 124-87 211t-211 87q-60 0-114-22l-64 64q62 32 136 42v88h84v-88q134-14 230-110t110-230z" />
<glyph unicode="&#xe0a6;" d="M694 190.667l-418 418q-62-82-62-182 0-124 87-211t211-87q100 0 182 62zM128 756.667l54 54 714-714-54-54-88 88q-90-74-200-86v-88h-84v88q-134 14-230 110t-110 230h-88v84h88q12 110 86 200zM894 468.667h88v-84h-88q-10-78-42-136l-64 64q22 54 22 114 0 124-87 211t-211 87q-60 0-114-22l-64 64q62 32 136 42v88h84v-88q134-14 230-110t110-230z" />
<glyph unicode="&#xe0a7;" d="M512 128.667q124 0 211 87t87 211-87 211-211 87-211-87-87-211 87-211 211-87zM894 468.667h88v-84h-88q-14-134-110-230t-230-110v-88h-84v88q-134 14-230 110t-110 230h-88v84h88q14 134 110 230t230 110v88h84v-88q134-14 230-110t110-230z" />
<glyph unicode="&#xe0a8;" d="M810 512.667h86v-172h-86v172zM640 170.667v512h86v-512h-86zM128 340.667v172h86v-172h-86zM470 0.667v852h84v-852h-84zM298 170.667v512h86v-512h-86z" />
<glyph unicode="&#xe0a9;" d="M938 0.667h-852l852 852v-852z" />
<glyph unicode="&#xe0aa;" d="M872 472.667l2-2-362-448-362 448 2 2-136 168q242 170 496 170t496-170z" />
<glyph unicode="&#xe0ab;" d="M768 682.667v-512h-512v512h170v-86h-84v-340h340v340h-128v-96q44-24 44-74 0-34-26-60t-60-26-60 26-26 60q0 50 44 74v96q0 34 25 60t59 26h214zM854 84.667v684h-684v-684h684zM854 852.667q34 0 59-25t25-59v-684q0-34-25-59t-59-25h-684q-34 0-59 25t-25 59v684q0 34 25 59t59 25h684z" />
<glyph unicode="&#xe0ac;" d="M170 384.667v-300h300v-84h-300q-34 0-59 25t-25 59v300h84zM854 84.667v300h84v-300q0-34-25-59t-59-25h-300v84h300zM854 852.667q34 0 59-25t25-59v-300h-84v300h-300v84h300zM726 576.667q0-26-19-45t-45-19-45 19-19 45 19 45 45 19 45-19 19-45zM426 384.667l128-158 86 114 128-170h-512zM170 768.667v-300h-84v300q0 34 25 59t59 25h300v-84h-300z" />
<glyph unicode="&#xe0ad;" d="M710 866.667l242-242-242-240h186v-342h-342v342h156l-240 240v-156h-342v342h342v-186zM128 42.667v342h342v-342h-342z" />
<glyph unicode="&#xe0ae;" d="M460 512.667v-44h104v44q0 20-15 35t-37 15-37-15-15-35zM426 256.667q-18 0-30 12t-12 30v128q0 18 12 30t30 12v44q0 34 25 59t61 25 61-24 25-60v-44q18 0 30-12t12-30v-128q0-18-12-30t-30-12h-172zM810 212.667v428h-596v-428h596zM896 724.667q34 0 60-25t26-59v-428q0-34-26-59t-60-25h-768q-34 0-60 25t-26 59v428q0 34 26 59t60 25h768z" />
<glyph unicode="&#xe0af;" d="M726 128.667v596h-428v-596h428zM726 896.667q34 0 59-26t25-60v-768q0-34-25-60t-59-26h-428q-34 0-59 26t-25 60v768q0 34 25 60t59 26h428zM460 512.667v-44h104v44q0 20-15 35t-37 15-37-15-15-35zM426 256.667q-18 0-30 12t-12 30v128q0 18 12 30t30 12v44q0 34 25 59t61 25 61-24 25-60v-44q18 0 30-12t12-30v-128q0-18-12-30t-30-12h-172z" />
<glyph unicode="&#xe0b0;" d="M716 832.667v-22h146v22q0 30-21 51t-51 21-52-21-22-51zM682 554.667q-18 0-30 12t-12 30v172q0 18 12 30t30 12v22q0 44 32 75t76 31 75-31 31-75v-22q18 0 30-12t12-30v-172q0-18-12-30t-30-12h-214zM362 64.667l56 56 162-162-28-2q-200 0-347 136t-163 334h64q12-118 81-215t175-147zM992 394.667q20-18 20-45t-20-47l-272-270q-18-20-44-20t-46 20l-512 512q-20 18-20 44t20 46l270 272q18 20 45 20t47-20l104-104-60-60-90 88-242-240 484-484 240 242-94 94 60 60z" />
<glyph unicode="&#xe0b1;" d="M320 22.667l58 56 162-162-28-2q-200 0-347 136t-163 334h64q12-120 80-216t174-146zM632 34.667l272 272-512 512-272-272zM436 864.667l514-514q20-18 20-44t-20-46l-272-272q-18-20-44-20t-46 20l-514 514q-20 18-20 44t20 46l272 272q18 20 44 20t46-20zM704 830.667l-58-56-162 162 28 2q200 0 347-136t163-334h-64q-12 120-80 216t-174 146z" />
<glyph unicode="&#xe0b2;" d="M768 596.667v172h-86v-172h86zM640 596.667v172h-86v-172h86zM512 596.667v172h-86v-172h86zM768 852.667q34 0 60-25t26-59v-684q0-34-26-59t-60-25h-512q-34 0-60 25t-26 59l2 512 254 256h342z" />
<glyph unicode="&#xe0b3;" d="M896 126.667v600h-768v-600h768zM896 810.667q34 0 60-26t26-60v-596q0-34-26-60t-60-26h-768q-34 0-60 26t-26 60v596q0 34 26 60t60 26h768zM384 256.667q-52 0-90 38t-38 90q0 50 33 86t81 40h8q42 86 134 86 56 0 98-37t50-91h2q44 0 75-31t31-75-31-75-75-31h-278z" />
<glyph unicode="&#xe0b4;" d="M86 0.667l852 852v-852h-852z" />
<glyph unicode="&#xe0b5;" d="M86 0.667l852 852v-256h-170v-596h-682zM854 0.667v84h84v-84h-84zM854 170.667v342h84v-342h-84z" />
<glyph unicode="&#xe0b6;" d="M156 772.667l746-744-56-56-80 82q-24-12-40-12h-428q-34 0-59 26t-25 60v478l-112 112zM810 724.667v-498l-484 484 100 100h300q34 0 59-26t25-60z" />
<glyph unicode="&#xe0b7;" d="M938 852.667v-852h-852zM854 646.667l-562-562h562v562z" />
<glyph unicode="&#xe0b8;" d="M204 746.667l734-736-54-54-84 86h-758l378 378-270 272zM896 896.667v-734l-366 366z" />
<glyph unicode="&#xe0b9;" d="M512 22.667l-496 618q242 170 496 170t496-170z" />
<glyph unicode="&#xe0ba;" d="M662 320.667v-112l-150-188-494 620 12 10q12 8 25 17t35 23 47 26 57 27 68 26 75 21 84 15 91 5 91-5 84-15 75-21 68-26 57-27 47-26 35-23 25-17l12-10-88-112q-12 4-44 4-90 0-151-61t-61-151zM938 256.667v64q0 26-19 45t-45 19-45-19-19-45v-64h128zM982 256.667q16 0 29-14t13-30v-170q0-16-13-29t-29-13h-214q-16 0-29 13t-13 29v170q0 16 13 30t29 14v64q0 46 30 76t76 30 77-31 31-75v-64z" />
<glyph unicode="&#xe0bb;" d="M140 876.667q24-24 307-306t427-430l-54-54-142 142-166-206-496 618q66 54 156 94l-86 88zM1008 640.667l-232-290-442 440q90 20 178 20 254 0 496-170z" />
<glyph unicode="&#xe0bc;" d="M170 468.667v-84h86v84h-86zM86 340.667v172h852v-172h-852zM256 640.667v84h-86v-84h86zM86 768.667h852v-172h-852v172zM170 212.667v-84h86v84h-86zM86 84.667v172h852v-172h-852z" />
<glyph unicode="&#xe0bd;" d="M640 640.667h170v-172h-42v-84q0-36-25-61t-61-25h-128v-130q52-28 52-84 0-38-27-66t-67-28-67 28-27 66q0 56 52 84v130h-128q-36 0-61 25t-25 61v88q-52 28-52 82 0 40 28 67t66 27 66-27 28-67q0-56-50-82v-88h128v340h-86l128 172 128-172h-86v-340h128v84h-42v172z" />
<glyph unicode="&#xe0be;" d="M938 256.667v64q0 26-19 45t-45 19-45-19-19-45v-64h128zM982 256.667q18 0 30-13t12-31v-170q0-18-12-30t-30-12h-214q-18 0-30 12t-12 30v170q0 18 12 31t30 13v64q0 44 31 75t75 31 76-31 32-75v-64zM874 532.667q-88 0-150-62t-62-150v-122l-150-198-512 682q224 170 512 170t512-170l-114-152q-12 2-36 2z" />
<glyph unicode="&#xe0bf;" d="M512 810.667q176 0 301-124t125-302q0-116-57-215t-155-155l-44 74q78 46 125 125t47 171q0 140-100 240t-242 100-242-100-100-240q0-94 46-172t124-124l-42-74q-98 56-155 155t-57 215q0 178 125 302t301 124zM768 384.667q0-70-35-129t-93-93l-42 74q84 50 84 148 0 70-50 120t-120 50-120-50-50-120q0-98 84-148l-42-74q-58 34-93 93t-35 129q0 106 75 181t181 75 181-75 75-181zM512 468.667q34 0 60-25t26-59-26-60-60-26-60 26-26 60 26 59 60 25z" />
<glyph unicode="&#xe0c0;" d="M704 682.667h64v-490q0-98-68-167t-166-69-167 69-69 167v532q0 70 51 121t121 51 120-51 50-121v-448q0-44-31-75t-75-31-76 31-32 75v406h64v-406q0-18 13-30t31-12 30 12 12 30v448q0 44-31 76t-75 32-76-32-32-76v-532q0-70 51-121t121-51 120 51 50 121v490z" />
<glyph unicode="&#xe0c1;" d="M504 472.667q44-12 73-24t61-33 49-53 17-76q0-62-41-101t-109-51v-92h-128v92q-66 14-109 56t-47 108h94q8-90 126-90 62 0 89 23t27 53q0 72-128 104-200 46-200 176 0 58 42 99t106 55v92h128v-94q66-16 101-60t37-102h-94q-4 90-108 90-52 0-83-22t-31-58q0-58 128-92z" />
<glyph unicode="&#xe0c2;" d="M810 468.667v256h-256v-256h256zM810 128.667v256h-256v-256h256zM470 468.667v256h-256v-256h256zM470 128.667v256h-256v-256h256zM128 810.667h768v-768h-768v768z" />
<glyph unicode="&#xe0c3;" d="M214 298.667v-86h-86v86h86zM128 42.667v86h768v-86h-768zM214 468.667v-84h-86v84h86zM810 554.667v86h86v-86h-86zM810 810.667h86v-86h-86v86zM214 640.667v-86h-86v86h86zM810 212.667v86h86v-86h-86zM810 384.667v84h86v-84h-86zM726 810.667v-86h-86v86h86zM554 810.667v-86h-84v86h84zM726 468.667v-84h-86v84h86zM554 640.667v-86h-84v86h84zM214 810.667v-86h-86v86h86zM554 468.667v-84h-84v84h84zM384 810.667v-86h-86v86h86zM554 298.667v-86h-84v86h84zM384 468.667v-84h-86v84h86z" />
<glyph unicode="&#xe0c4;" d="M640 724.667v86h86v-86h-86zM640 384.667v84h86v-84h-86zM640 42.667v86h86v-86h-86zM470 724.667v86h84v-86h-84zM810 810.667h86v-86h-86v86zM470 554.667v86h84v-86h-84zM810 554.667v86h86v-86h-86zM810 42.667v86h86v-86h-86zM810 384.667v84h86v-84h-86zM810 212.667v86h86v-86h-86zM470 384.667v84h84v-84h-84zM128 724.667v86h86v-86h-86zM128 554.667v86h86v-86h-86zM128 384.667v84h86v-84h-86zM128 212.667v86h86v-86h-86zM128 42.667v86h86v-86h-86zM470 42.667v86h84v-86h-84zM470 212.667v86h84v-86h-84zM298 42.667v86h86v-86h-86zM298 384.667v84h86v-84h-86zM298 724.667v86h86v-86h-86z" />
<glyph unicode="&#xe0c5;" d="M0 84.667h1024v-170h-1024v170zM884 766.667l-84-84-160 160 84 84q12 12 30 12t30-12l100-100q12-12 12-30t-12-30zM758 640.667l-428-428h-160v160l428 428z" />
<glyph unicode="&#xe0c6;" d="M810 42.667v86h86v-86h-86zM640 42.667v86h86v-86h-86zM470 212.667v86h84v-86h-84zM810 554.667v86h86v-86h-86zM810 810.667h86v-86h-86v86zM128 384.667v84h768v-84h-768zM470 42.667v86h84v-86h-84zM810 212.667v86h86v-86h-86zM554 810.667v-86h-84v86h84zM554 640.667v-86h-84v86h84zM726 810.667v-86h-86v86h86zM384 810.667v-86h-86v86h86zM214 810.667v-86h-86v86h86zM298 42.667v86h86v-86h-86zM128 212.667v86h86v-86h-86zM214 640.667v-86h-86v86h86zM128 42.667v86h86v-86h-86z" />
<glyph unicode="&#xe0c7;" d="M810 212.667v86h86v-86h-86zM810 42.667v86h86v-86h-86zM554 810.667v-342h342v-84h-342v-342h-84v342h-342v84h342v342h84zM640 42.667v86h86v-86h-86zM810 810.667h86v-86h-86v86zM810 554.667v86h86v-86h-86zM726 810.667v-86h-86v86h86zM214 810.667v-86h-86v86h86zM384 810.667v-86h-86v86h86zM128 212.667v86h86v-86h-86zM214 640.667v-86h-86v86h86zM298 42.667v86h86v-86h-86zM128 42.667v86h86v-86h-86z" />
<glyph unicode="&#xe0c8;" d="M640 724.667v86h86v-86h-86zM640 384.667v84h86v-84h-86zM810 42.667v86h86v-86h-86zM810 384.667v84h86v-84h-86zM810 810.667h86v-86h-86v86zM810 212.667v86h86v-86h-86zM640 42.667v86h86v-86h-86zM810 554.667v86h86v-86h-86zM128 42.667v768h86v-768h-86zM298 384.667v84h86v-84h-86zM298 724.667v86h86v-86h-86zM298 42.667v86h86v-86h-86zM470 384.667v84h84v-84h-84zM470 554.667v86h84v-86h-84zM470 724.667v86h84v-86h-84zM470 212.667v86h84v-86h-84zM470 42.667v86h84v-86h-84z" />
<glyph unicode="&#xe0c9;" d="M384 468.667v-84h-86v84h86zM554 298.667v-86h-84v86h84zM810 128.667v596h-596v-596h596zM128 810.667h768v-768h-768v768zM726 468.667v-84h-86v84h86zM554 468.667v-84h-84v84h84zM554 640.667v-86h-84v86h84z" />
<glyph unicode="&#xe0ca;" d="M470 554.667v86h84v-86h-84zM470 724.667v86h84v-86h-84zM470 384.667v84h84v-84h-84zM640 724.667v86h86v-86h-86zM640 42.667v86h86v-86h-86zM810 810.667h86v-768h-86v768zM640 384.667v84h86v-84h-86zM470 212.667v86h84v-86h-84zM128 554.667v86h86v-86h-86zM128 212.667v86h86v-86h-86zM128 384.667v84h86v-84h-86zM470 42.667v86h84v-86h-84zM128 42.667v86h86v-86h-86zM298 384.667v84h86v-84h-86zM298 724.667v86h86v-86h-86zM128 724.667v86h86v-86h-86zM298 42.667v86h86v-86h-86z" />
<glyph unicode="&#xe0cb;" d="M810 554.667v86h86v-86h-86zM128 810.667h768v-86h-682v-682h-86v768zM810 384.667v84h86v-84h-86zM810 212.667v86h86v-86h-86zM470 42.667v86h84v-86h-84zM298 42.667v86h86v-86h-86zM810 42.667v86h86v-86h-86zM640 42.667v86h86v-86h-86z" />
<glyph unicode="&#xe0cc;" d="M640 384.667v84h86v-84h-86zM810 42.667v86h86v-86h-86zM470 554.667v86h84v-86h-84zM640 42.667v86h86v-86h-86zM810 212.667v86h86v-86h-86zM128 810.667h768v-86h-768v86zM810 384.667v84h86v-84h-86zM810 554.667v86h86v-86h-86zM470 212.667v86h84v-86h-84zM128 554.667v86h86v-86h-86zM128 384.667v84h86v-84h-86zM128 42.667v86h86v-86h-86zM128 212.667v86h86v-86h-86zM470 42.667v86h84v-86h-84zM470 384.667v84h84v-84h-84zM298 384.667v84h86v-84h-86zM298 42.667v86h86v-86h-86z" />
<glyph unicode="&#xe0cd;" d="M640 384.667v84h86v-84h-86zM640 42.667v86h86v-86h-86zM640 724.667v86h86v-86h-86zM810 554.667v86h86v-86h-86zM810 810.667h86v-86h-86v86zM810 384.667v84h86v-84h-86zM810 42.667v86h86v-86h-86zM470 42.667v768h84v-768h-84zM810 212.667v86h86v-86h-86zM298 724.667v86h86v-86h-86zM128 212.667v86h86v-86h-86zM128 42.667v86h86v-86h-86zM128 384.667v84h86v-84h-86zM298 384.667v84h86v-84h-86zM298 42.667v86h86v-86h-86zM128 724.667v86h86v-86h-86zM128 554.667v86h86v-86h-86z" />
<glyph unicode="&#xe0ce;" d="M128 810.667h768v-86h-768v86zM298 640.667h428v-86h-428v86zM128 384.667v84h768v-84h-768zM128 42.667v86h768v-86h-768zM298 298.667h428v-86h-428v86z" />
<glyph unicode="&#xe0cf;" d="M128 810.667h768v-86h-768v86zM128 554.667v86h768v-86h-768zM128 384.667v84h768v-84h-768zM128 212.667v86h768v-86h-768zM128 42.667v86h768v-86h-768z" />
<glyph unicode="&#xe0d0;" d="M128 810.667h768v-86h-768v86zM128 42.667v86h768v-86h-768zM128 384.667v84h768v-84h-768zM640 640.667v-86h-512v86h512zM640 298.667v-86h-512v86h512z" />
<glyph unicode="&#xe0d1;" d="M128 810.667h768v-86h-768v86zM384 554.667v86h512v-86h-512zM128 384.667v84h768v-84h-768zM384 212.667v86h512v-86h-512zM128 42.667v86h768v-86h-768z" />
<glyph unicode="&#xe0d2;" d="M576 276.667q28 0 46 19t18 45-18 45-46 19h-150v-128h150zM426 660.667v-128h128q26 0 45 19t19 45-19 45-45 19h-128zM666 478.667q92-42 92-146 0-68-45-115t-113-47h-302v598h268q72 0 121-50t49-122-70-118z" />
<glyph unicode="&#xe0d3;" d="M256 724.667h598v-128h-248l-68-160-90 88 30 72h-102l-120 120v8zM140 724.667l12-10 616-618-54-54-242 242-66-156h-128l104 246-296 296z" />
<glyph unicode="&#xe0d4;" d="M0 84.667h1024v-170h-1024v170zM810 448.667q86-94 86-150 0-34-26-60t-60-26-59 26-25 60q0 24 21 62t41 62zM222 512.667h410l-206 204zM706 556.667q20-20 20-46t-20-44l-234-234q-20-20-46-20-24 0-44 20l-236 234q-20 18-20 44t20 46l220 220-102 102 62 60z" />
<glyph unicode="&#xe0d5;" d="M224 714.667l624-624-54-54-114 112q-74-64-168-64-106 0-181 75t-75 181q0 68 56 176l-142 142zM768 340.667q0-30-6-56l-366 368 116 150q28-32 71-86t114-177 71-199z" />
<glyph unicode="&#xe0d6;" d="M410 426.667h204l-102 270zM470 810.667h84l234-598h-96l-46 128h-268l-48-128h-96zM0 84.667h1024v-170h-1024v170z" />
<glyph unicode="&#xe0d7;" d="M470 384.667v84h426v-84h-426zM470 554.667v86h426v-86h-426zM128 810.667h768v-86h-768v86zM128 42.667v86h768v-86h-768zM128 426.667l170 170v-340zM470 212.667v86h426v-86h-426z" />
<glyph unicode="&#xe0d8;" d="M470 384.667v84h426v-84h-426zM470 554.667v86h426v-86h-426zM128 810.667h768v-86h-768v86zM470 212.667v86h426v-86h-426zM128 596.667l170-170-170-170v340zM128 42.667v86h768v-86h-768z" />
<glyph unicode="&#xe0d9;" d="M426 768.667h342v-128h-120l-144-342h94v-128h-342v128h120l144 342h-94v128z" />
<glyph unicode="&#xe0da;" d="M426 384.667v84h512v-84h-512zM426 128.667v84h512v-84h-512zM426 724.667h512v-84h-512v84zM256 640.667v-428h106l-148-148-150 148h106v428h-106l150 148 148-148h-106z" />
<glyph unicode="&#xe0db;" d="M298 724.667h598v-84h-598v84zM298 384.667v84h598v-84h-598zM298 128.667v84h598v-84h-598zM170 226.667q24 0 41-16t17-40-17-40-41-16-40 16-16 40 16 40 40 16zM170 746.667q26 0 45-18t19-46-19-46-45-18-45 18-19 46 19 46 45 18zM170 490.667q26 0 45-18t19-46-19-46-45-18-45 18-19 46 19 46 45 18z" />
<glyph unicode="&#xe0dc;" d="M298 384.667v84h598v-84h-598zM298 128.667v84h598v-84h-598zM298 724.667h598v-84h-598v84zM86 468.667v44h128v-40l-78-88h78v-44h-128v40l76 88h-76zM128 596.667v128h-42v44h84v-172h-42zM86 212.667v44h128v-172h-128v44h84v20h-42v44h42v20h-84z" />
<glyph unicode="&#xe0dd;" d="M768 768.667h128v-342h-342v-384q0-18-12-30t-30-12h-86q-18 0-30 12t-12 30v470h426v170h-42v-42q0-18-12-31t-30-13h-512q-18 0-31 13t-13 31v170q0 18 13 30t31 12h512q18 0 30-12t12-30v-42z" />
<glyph unicode="&#xe0de;" d="M598 212.667l84 172h-128v256h256v-256l-84-172h-128zM256 212.667l86 172h-128v256h256v-256l-86-172h-128z" />
<glyph unicode="&#xe0df;" d="M128 426.667v128h384v-128h-128v-298h-128v298h-128zM384 768.667h554v-128h-212v-512h-128v512h-214v128z" />
<glyph unicode="&#xe0e0;" d="M128 340.667v86h768v-86h-768zM214 768.667h596v-128h-212v-128h-172v128h-212v128zM426 128.667v128h172v-128h-172z" />
<glyph unicode="&#xe0e1;" d="M896 170.667l-170-170v128h-512v84h512v128zM384 512.667q-70 0-120 50t-50 120 50 120 120 50h342v-84h-86v-470h-86v470h-84v-470h-86v214z" />
<glyph unicode="&#xe0e2;" d="M342 212.667h512v-84h-512v-128l-172 170 172 170v-128zM426 512.667q-70 0-120 50t-50 120 50 120 120 50h342v-84h-86v-470h-84v470h-86v-470h-86v214z" />
<glyph unicode="&#xe0e3;" d="M214 128.667h596v-86h-596v86zM512 212.667q-106 0-181 75t-75 181v342h106v-342q0-62 44-105t106-43 106 43 44 105v342h106v-342q0-106-75-181t-181-75z" />
<glyph unicode="&#xe0e4;" d="M768 768.667v-128h-298l212-214-212-214h298v-128h-512v86l278 256-278 256v86h512z" />
<glyph unicode="&#xe0e5;" d="M726 212.667v172h-86v-172h86zM554 212.667v428h-84v-428h84zM384 212.667v300h-86v-300h86zM810 810.667q34 0 60-26t26-60v-596q0-34-26-60t-60-26h-596q-34 0-60 26t-26 60v596q0 34 26 60t60 26h596z" />
<glyph unicode="&#xe0e6;" d="M768 596.667v86h-512v-86h512zM768 468.667v86h-512v-86h512zM768 340.667v86h-512v-86h512zM854 852.667q34 0 59-25t25-59v-768l-170 170h-598q-34 0-59 26t-25 60v512q0 34 25 59t59 25h684z" />
<glyph unicode="&#xe0e7;" d="M554 554.667h236l-236 234v-234zM256 852.667h342l256-256v-512q0-34-26-59t-60-25h-512q-34 0-60 25t-26 59l2 684q0 34 25 59t59 25z" />
<glyph unicode="&#xe0e8;" d="M512 192.667q-74 0-133 41t-85 107h436q-26-66-85-107t-133-41zM362 468.667q-26 0-45 19t-19 45 19 45 45 19 45-19 19-45-19-45-45-19zM662 468.667q-26 0-45 19t-19 45 19 45 45 19 45-19 19-45-19-45-45-19zM512 84.667q140 0 241 101t101 241-101 241-241 101-241-101-101-241 101-241 241-101zM512 852.667q176 0 301-125t125-301-125-301-301-125-301 125-125 301 125 301 301 125z" />
<glyph unicode="&#xe0e9;" d="M810 128.667v468h-596v-468h596zM682 896.667h86v-86h42q34 0 60-26t26-60v-596q0-34-26-60t-60-26h-596q-36 0-61 26t-25 60v596q0 34 25 60t61 26h42v86h86v-86h340v86zM726 426.667v-214h-214v214h214z" />
<glyph unicode="&#xe0ea;" d="M726 640.667q88 0 150-63t62-151-62-151-150-63h-172v82h172q54 0 93 39t39 93-39 93-93 39h-172v82h172zM342 384.667v84h340v-84h-340zM166 426.667q0-54 39-93t93-39h172v-82h-172q-88 0-150 63t-62 151 62 151 150 63h172v-82h-172q-54 0-93-39t-39-93z" />
<glyph unicode="&#xe0eb;" d="M362 362.667l-148-192h596l-192 256-148-192zM896 128.667q0-34-26-60t-60-26h-596q-34 0-60 26t-26 60v596q0 34 26 60t60 26h596q34 0 60-26t26-60v-596z" />
<glyph unicode="&#xe0ec;" d="M320 596.667l192 192 192-192h-150v-272l-256-256-60 60 232 230v238h-150zM726 68.667l-146 144 60 60 146-144z" />
<glyph unicode="&#xe0ed;" d="M938 768.667v-768l-170 170h-598q-34 0-59 26t-25 60v512q0 34 25 59t59 25h684q34 0 59-25t25-59z" />
<glyph unicode="&#xe0ee;" d="M884 638.667l-78-78-160 160 78 78q12 12 30 12t30-12l100-100q12-12 12-30t-12-30zM128 202.667l472 472 160-160-472-472h-160v160z" />
<glyph unicode="&#xe0ef;" d="M214 340.667l298 300 298-300h-170v-256h-256v256h-170zM214 768.667h596v-86h-596v86z" />
<glyph unicode="&#xe0f0;" d="M768 554.667h86v-256h-684v256h86v-170h512v170z" />
<glyph unicode="&#xe0f1;" d="M982 426.667v-86h-184l8-16q18-46 18-94 0-44-22-98-12-32-60-72-44-38-94-48-50-16-124-16-68 0-158 28-14 6-37 21t-31 19q-24 12-54 50t-40 68q-12 38-12 90h170q0-36 14-68 6-14 34-42 34-34 120-34 22 0 58 8 4 4 20 11t20 11q18 12 24 30 10 30 10 38 0 52-30 72-36 24-52 30-4 2-15 6t-15 6h-508v86h940zM252 512.667q-12 12-14 16-20 44-20 94t26 94q32 80 158 120 50 16 122 16 88 0 134-20 48-10 98-52 40-34 58-80 22-54 22-104h-170q0 64-34 86-34 34-102 34-24 0-60-8-16-4-44-22-18-12-24-30-10-30-10-38 0-42 44-68 44-24 84-38h-268z" />
<glyph unicode="&#xe0f2;" d="M170 128.667h684v-86h-684v86zM682 384.667l-170-172-170 172h128v426h84v-426h128z" />
<glyph unicode="&#xe0f3;" d="M170 468.667h684v-84h-684v84zM682 724.667l-170-170-170 170h128v172h84v-172h128zM342 128.667l170 170 170-170h-128v-172h-84v172h-128z" />
<glyph unicode="&#xe0f4;" d="M170 810.667h684v-86h-684v86zM342 468.667l170 172 170-172h-128v-426h-84v426h-128z" />
<glyph unicode="&#xe0f5;" d="M726 468.667q70 0 120-50t50-120-50-120-120-50h-86v-86l-128 128 128 128v-86h96q34 0 60 26t26 60-26 60-60 26h-566v84h556zM854 724.667v-84h-684v84h684zM170 128.667v84h256v-84h-256z" />
<glyph unicode="&#xe0f6;" d="M228 764.667l622-624-54-54-94 96q-38-34-104-48v-92h-128v92q-66 14-110 56t-48 108h94q8-90 128-90 74 0 102 40l-150 148q-166 50-166 168l-146 146zM534 644.667q-38 0-66-12l-62 62q28 14 64 24v92h128v-94q64-16 99-60t37-102h-94q-4 90-106 90z" />
<glyph unicode="&#xe0f7;" d="M320 170.667q-98 0-166 68t-68 166 68 167 166 69h448q70 0 120-51t50-121-50-120-120-50h-362q-44 0-76 31t-32 75 32 76 76 32h320v-64h-320q-18 0-31-13t-13-31 13-30 31-12h362q44 0 75 31t31 75-31 76-75 32h-448q-70 0-120-51t-50-121 50-120 120-50h406v-64h-406z" />
<glyph unicode="&#xe0f8;" d="M826 510.667q82-6 140-67t58-145q0-88-63-151t-151-63h-554q-106 0-181 75t-75 181q0 98 66 171t162 83q42 78 118 126t166 48q116 0 204-73t110-185z" />
<glyph unicode="&#xe0f9;" d="M704 256.667q44 0 75 31t31 75-31 75-75 31h-22q0 70-50 121t-120 51q-60 0-105-37t-59-93l-6 2q-52 0-90-38t-38-90 38-90 90-38h362zM512 852.667q176 0 301-125t125-301-125-301-301-125-301 125-125 301 125 301 301 125z" />
<glyph unicode="&#xe0fa;" d="M426 212.667l282 282-60 60-222-220-88 88-60-60zM826 510.667q82-6 140-67t58-145q0-88-63-151t-151-63h-554q-106 0-181 75t-75 181q0 98 66 171t162 83q42 78 118 126t166 48q116 0 204-73t110-185z" />
<glyph unicode="&#xe0fb;" d="M726 384.667h-128v170h-172v-170h-128l214-214zM826 510.667q82-6 140-67t58-145q0-88-63-151t-151-63h-554q-106 0-181 75t-75 181q0 98 66 171t162 83q42 78 118 126t166 48q116 0 204-73t110-185z" />
<glyph unicode="&#xe0fc;" d="M330 512.667h-74q-70 0-120-51t-50-121 50-120 120-50h416zM128 714.667l54 54 714-714-54-54-86 84h-500q-106 0-181 75t-75 181q0 104 72 178t174 78zM826 510.667q82-6 140-67t58-145q0-110-90-174l-62 62q66 36 66 112 0 52-38 90t-90 38h-64v22q0 98-68 166t-166 68q-62 0-108-26l-64 62q78 50 172 50 116 0 204-73t110-185z" />
<glyph unicode="&#xe0fd;" d="M810 170.667q52 0 90 38t38 90-38 90-90 38h-64v22q0 98-68 166t-166 68q-80 0-142-48t-84-122h-30q-70 0-120-51t-50-121 50-120 120-50h554zM826 510.667q82-6 140-67t58-145q0-88-63-151t-151-63h-554q-106 0-181 75t-75 181q0 98 66 171t162 83q42 78 118 126t166 48q116 0 204-73t110-185z" />
<glyph unicode="&#xe0fe;" d="M598 384.667h128l-214 212-214-212h128v-172h172v172zM826 510.667q82-6 140-67t58-145q0-88-63-151t-151-63h-554q-106 0-181 75t-75 181q0 98 66 171t162 83q42 78 118 126t166 48q116 0 204-73t110-185z" />
<glyph unicode="&#xe0ff;" d="M214 170.667h596v-86h-596v86zM810 554.667l-298-298-298 298h170v256h256v-256h170z" />
<glyph unicode="&#xe100;" d="M214 170.667h596v-86h-596v86zM384 256.667v256h-170l298 298 298-298h-170v-256h-256z" />
<glyph unicode="&#xe101;" d="M426 768.667l86-86h342q34 0 59-26t25-60v-426q0-34-25-60t-59-26h-684q-34 0-59 26t-25 60v512q0 34 25 60t59 26h256z" />
<glyph unicode="&#xe102;" d="M854 170.667v426h-684v-426h684zM854 682.667q34 0 59-26t25-60v-426q0-34-25-60t-59-26h-684q-34 0-59 26t-25 60v512q0 34 25 60t59 26h256l86-86h342z" />
<glyph unicode="&#xe103;" d="M810 212.667v44q0 38-59 61t-111 23-111-23-59-61v-44h340zM640 554.667q-34 0-60-26t-26-60 26-59 60-25 60 25 26 59-26 60-60 26zM854 682.667q34 0 59-26t25-60v-426q0-34-25-60t-59-26h-684q-34 0-59 26t-25 60v512q0 34 25 60t59 26h256l86-86h342z" />
<glyph unicode="&#xe104;" d="M42 512.667q194 0 332-138t138-332h-86q0 160-113 272t-271 112v86zM42 340.667q124 0 212-87t88-211h-86q0 88-63 151t-151 63v84zM42 170.667q52 0 90-38t38-90h-128v128zM896 810.667q34 0 60-26t26-60v-596q0-34-26-60t-60-26h-298v86h298v596h-768v-128h-86v128q0 34 26 60t60 26h768z" />
<glyph unicode="&#xe105;" d="M896 810.667q34 0 60-26t26-60v-596q0-34-26-60t-60-26h-298v86h298v596h-768v-128h-86v128q0 34 26 60t60 26h768zM42 512.667q194 0 332-138t138-332h-86q0 160-113 272t-271 112v86zM810 640.667v-428h-240q-40 126-135 222t-221 136v70h596zM42 340.667q124 0 212-87t88-211h-86q0 88-63 151t-151 63v84zM42 170.667q52 0 90-38t38-90h-128v128z" />
<glyph unicode="&#xe106;" d="M170 682.667v-426h684v426h-684zM854 170.667h170v-86h-1024v86h170q-34 0-59 26t-25 60v426q0 34 25 60t59 26h684q34 0 59-26t25-60v-426q0-34-25-60t-59-26z" />
<glyph unicode="&#xe107;" d="M896 340.667v428h-768v-428h768zM896 852.667q34 0 60-25t26-59v-512q0-34-26-60t-60-26h-298l84-128v-42h-340v42l84 128h-298q-34 0-60 26t-26 60v512q0 34 26 59t60 25h768z" />
<glyph unicode="&#xe108;" d="M896 256.667v512h-768v-512h768zM896 852.667q34 0 60-25t26-59v-512q0-34-26-60t-60-26h-298v-86h84v-84h-340v84h84v86h-298q-34 0-60 26t-26 60v512q0 34 26 59t60 25h768z" />
<glyph unicode="&#xe109;" d="M512 468.667h170v-256h-170v256zM256 640.667h214v-214h-214v214zM512 640.667h170v-128h-170v128zM256 384.667h214v-172h-214v172zM768 128.667v596h-598v-596h598zM938 554.667h-84v-86h84v-84h-84v-86h84v-86h-84v-84q0-34-26-60t-60-26h-598q-34 0-59 26t-25 60v596q0 34 25 60t59 26h598q34 0 60-26t26-60v-84h84v-86z" />
<glyph unicode="&#xe10a;" d="M682 298.667v426h-340v-426h340zM682 894.667q34 0 60-25t26-59v-598q0-34-26-59t-60-25h-340q-34 0-60 25t-26 59v598q0 34 26 60t60 26zM342-43.333v86h340v-86h-340z" />
<glyph unicode="&#xe10b;" d="M704 554.667h234v-256h-234l-128 128zM384 234.667l128 128 128-128v-234h-256v234zM320 554.667l128-128-128-128h-234v256h234zM640 618.667l-128-128-128 128v234h256v-234z" />
<glyph unicode="&#xe10c;" d="M512 896.667q160 0 272-113t112-271v-300q0-52-38-90t-90-38h-128v342h170v86q0 124-87 211t-211 87-211-87-87-211v-86h170v-342h-128q-52 0-90 38t-38 90v300q0 158 112 271t272 113z" />
<glyph unicode="&#xe10d;" d="M512 896.667q160 0 272-113t112-271v-428q0-52-38-90t-90-38h-256v86h298v42h-170v342h170v86q0 124-87 211t-211 87-211-87-87-211v-86h170v-342h-128q-52 0-90 38t-38 90v300q0 158 112 271t272 113z" />
<glyph unicode="&#xe10e;" d="M810 512.667v84h-84v-84h84zM810 384.667v84h-84v-84h84zM682 512.667v84h-84v-84h84zM682 384.667v84h-84v-84h84zM682 212.667v86h-340v-86h340zM298 512.667v84h-84v-84h84zM298 384.667v84h-84v-84h84zM342 468.667v-84h84v84h-84zM342 596.667v-84h84v84h-84zM470 468.667v-84h84v84h-84zM470 596.667v-84h84v84h-84zM854 724.667q34 0 59-25t25-59v-428q0-34-25-59t-59-25h-684q-34 0-59 25t-25 59v428q0 34 25 59t59 25h684z" />
<glyph unicode="&#xe10f;" d="M316 604.667l196-196 196 196 60-60-256-256-256 256z" />
<glyph unicode="&#xe110;" d="M658 252.667l-60-60-256 256 256 256 60-60-196-196z" />
<glyph unicode="&#xe111;" d="M366 240.667l196 196-196 196 60 60 256-256-256-256z" />
<glyph unicode="&#xe112;" d="M316 280.667l-60 60 256 256 256-256-60-60-196 196z" />
<glyph unicode="&#xe113;" d="M896 468.667v-84h-604l152-154-60-60-256 256 256 256 60-60-152-154h604z" />
<glyph unicode="&#xe114;" d="M256 170.667v86h512v-86h-512zM512 580.667l-196-196-60 60 256 256 256-256-60-60z" />
<glyph unicode="&#xe115;" d="M512-43.333l-170 172h340zM810 596.667v86h-84v-86h84zM810 468.667v86h-84v-86h84zM682 596.667v86h-84v-86h84zM682 468.667v86h-84v-86h84zM682 298.667v86h-340v-86h340zM298 596.667v86h-84v-86h84zM298 468.667v86h-84v-86h84zM342 554.667v-86h84v86h-84zM342 682.667v-86h84v86h-84zM470 554.667v-86h84v86h-84zM470 682.667v-86h84v86h-84zM854 810.667q34 0 59-26t25-60v-426q0-34-25-60t-59-26h-684q-34 0-59 26t-25 60v426q0 34 25 60t59 26h684z" />
<glyph unicode="&#xe116;" d="M810 640.667h86v-256h-648l154-154-60-60-256 256 256 256 60-60-154-154h562v172z" />
<glyph unicode="&#xe117;" d="M854 682.667h84v-512h-84v512zM494 622.667l60 60 256-256-256-256-60 60 154 154h-606v84h606z" />
<glyph unicode="&#xe118;" d="M738 426.667h72q0-108-75-189t-181-97v-140h-84v140q-106 16-181 97t-75 189h72q0-94 67-156t159-62 159 62 67 156zM512 298.667q-52 0-90 38t-38 90v256q0 52 38 90t90 38 90-38 38-90v-256q0-52-38-90t-90-38z" />
<glyph unicode="&#xe119;" d="M170 682.667v-426h684v426h-684zM854 170.667h170v-86h-1024v86h170q-34 0-59 26t-25 60v426q0 34 25 60t59 26h684q34 0 59-26t25-60v-426q0-34-25-60t-59-26z" />
<glyph unicode="&#xe11a;" d="M854 298.667v426h-684v-426h684zM598 170.667v42h-172v-42h172zM938 170.667h86v-86h-1024v86h86v640h852v-640z" />
<glyph unicode="&#xe11b;" d="M512 128.667q18 0 30 12t12 30-12 30-30 12-30-12-12-30 12-30 30-12zM170 724.667v-468h684v468h-684zM854 170.667h170q0-34-26-60t-60-26h-852q-34 0-60 26t-26 60h170q-34 0-59 26t-25 60v468q0 34 25 60t59 26h684q34 0 59-26t25-60v-468q0-34-25-60t-59-26z" />
<glyph unicode="&#xe11c;" d="M170 724.667v-426h684v426h-684zM854 170.667h170v-86h-1024v86h170v42q-34 0-59 26t-25 60v426q0 34 25 60t59 26h684q34 0 59-26t25-60v-426q0-34-25-60t-59-26v-42z" />
<glyph unicode="&#xe11d;" d="M726 212.667v428h-428v-428h428zM896 468.667h-86v-84h86v-86h-86v-86q0-34-25-59t-59-25h-86v-86h-86v86h-84v-86h-86v86h-86q-34 0-59 25t-25 59v86h-86v86h86v84h-86v86h86v86q0 34 25 59t59 25h86v86h86v-86h84v86h86v-86h86q34 0 59-25t25-59v-86h86v-86zM554 384.667v84h-84v-84h84zM640 554.667v-256h-256v256h256z" />
<glyph unicode="&#xe11e;" d="M470 892.667v-338h-300q0 130 87 226t213 112zM170 298.667v170h684v-170q0-140-101-241t-241-101-241 101-101 241zM554 892.667q126-16 213-112t87-226h-300v338z" />
<glyph unicode="&#xe11f;" d="M736 170.667v598h-448v-598h448zM598 42.667v42h-172v-42h172zM682 896.667q52 0 90-38t38-90v-684q0-52-38-90t-90-38h-340q-52 0-90 38t-38 90v684q0 52 38 90t90 38h340z" />
<glyph unicode="&#xe120;" d="M682 170.667v598h-384v-598h384zM490 0.667q26 0 45 19t19 45-19 45-45 19-45-19-19-45 19-45 45-19zM662 896.667q44 0 75-32t31-76v-724q0-44-31-76t-75-32h-342q-44 0-75 32t-31 76v724q0 44 31 76t75 32h342z" />
<glyph unicode="&#xe121;" d="M938 212.667v300h-170v-300h170zM982 596.667q18 0 30-12t12-30v-426q0-18-12-31t-30-13h-256q-18 0-31 13t-13 31v426q0 18 13 30t31 12h256zM170 682.667v-470h428v-128h-598v128h86v470q0 34 25 60t59 26h768v-86h-768z" />
<glyph unicode="&#xe122;" d="M982 596.667q18 0 30-12t12-30v-426q0-18-12-31t-30-13h-8l-128 128h92v300h-170v-222l-86 86v178q0 18 13 30t31 12h256zM170 670.667v-458h458zM82 868.667q162-162 461-462t367-368l-54-54-100 100h-756v128h86v470q0 30 20 54l-78 78zM938 682.667h-562l-86 86h648v-86z" />
<glyph unicode="&#xe123;" d="M640 170.667v86h-86v-86h86zM490 170.667v86h-84v-86h84zM342 170.667v86h-86v-86h86zM810 384.667q34 0 60-26t26-60v-170q0-34-26-60t-60-26h-596q-34 0-60 26t-26 60v170q0 34 26 60t60 26h426v170h86v-170h84zM824 652.667l-34-34q-42 42-108 42-64 0-106-42l-34 34q60 60 140 60 82 0 142-60zM862 686.667q-82 72-180 72-96 0-178-72l-34 34q90 90 212 90 124 0 214-90z" />
<glyph unicode="&#xe124;" d="M810 212.667v86h-426v-86h426zM298 212.667v86h-84v-86h84zM844 482.667q22-6 37-29t15-49v-234q0-34-26-60t-60-26h-596q-34 0-60 26t-26 60v170q0 34 26 60t60 26h536l-600 218 30 80z" />
<glyph unicode="&#xe125;" d="M512 896.667l384-172v-256q0-178-110-325t-274-187q-164 40-274 187t-110 325v256zM512 426.667v-382q118 38 200 143t98 239h-298zM512 426.667v376l-298-132v-244h298z" />
<glyph unicode="&#xe126;" d="M726 298.667v170h-86v-170h86zM554 384.667v84h-84v-84h84zM554 128.667v170h-84v-170h84zM384 298.667v170h-86v-170h86zM726 128.667v84h-86v-84h86zM384 128.667v84h-86v-84h86zM852 768.667l2-684q0-34-26-59t-60-25h-512q-34 0-60 25t-26 59v512l256 256h342q34 0 59-25t25-59z" />
<glyph unicode="&#xe127;" d="M726 128.667v596h-428v-596h428zM726 894.667q34 0 59-25t25-59v-768q0-34-25-60t-59-26h-428q-34 0-59 26t-25 60v768q0 34 25 60t59 26z" />
<glyph unicode="&#xe128;" d="M512 426.667q52 0 90-38t38-90-38-90-90-38-90 38-38 90 38 90 90 38zM512 84.667q88 0 151 63t63 151-63 151-151 63-151-63-63-151 63-151 151-63zM512 768.667q-36 0-61-26t-25-60 25-60 61-26q34 0 60 26t26 60-26 60-60 26zM726 852.667q34 0 59-25t25-59v-684q0-34-25-59t-59-25h-428q-34 0-59 25t-25 59v684q0 34 25 59t59 25h428z" />
<glyph unicode="&#xe129;" d="M256 724.667v-682h426v-86h-426q-36 0-61 26t-25 60v682h86zM490 404.667q0 44 32 76t76 32 75-32 31-76-31-75-75-31-76 31-32 75zM598 234.667q70 0 120 50t50 120-50 121-120 51-121-51-51-121 51-120 121-50zM598 810.667q-34 0-60-25t-26-61 25-60 61-24q34 0 59 24t25 60-25 61-59 25zM776 896.667q32 0 55-23t23-55v-614q0-32-23-54t-55-22h-358q-32 0-54 22t-22 54v614q0 32 22 55t54 23h358z" />
<glyph unicode="&#xe12a;" d="M810 170.667v512h-596v-512h596zM896 768.667q34 0 60-26t26-60l-2-512q0-34-25-60t-59-26h-768q-34 0-60 26t-26 60v512q0 34 26 60t60 26h768z" />
<glyph unicode="&#xe12b;" d="M822 128.667v682h-620v-682h620zM598 0.667v42h-172v-42h172zM768 938.667q52 0 90-38t38-90v-768q0-52-38-90t-90-38h-512q-52 0-90 38t-38 90v768q0 52 38 90t90 38h512z" />
<glyph unicode="&#xe12c;" d="M810 128.667v682h-640v-682h640zM490-43.333q26 0 45 19t19 45-19 45-45 19-45-19-19-45 19-45 45-19zM790 938.667q44 0 75-31t31-75v-812q0-44-31-75t-75-31h-598q-44 0-75 31t-31 75v812q0 44 31 75t75 31h598z" />
<glyph unicode="&#xe12d;" d="M512 426.667q0-96-69-165t-165-69-166 69-70 165h470zM512 426.667q-96 0-165 69t-69 165 69 166 165 70v-470zM512 426.667q96 0 165-69t69-165-69-166-165-70v470zM512 426.667q0 96 69 165t165 69 166-69 70-165h-470z" />
<glyph unicode="&#xe12e;" d="M896 212.667v512h-768v-512h768zM896 810.667q34 0 60-26t26-60l-2-512q0-34-25-59t-59-25h-214v-86h-340v86h-214q-34 0-60 25t-26 59v512q0 34 26 60t60 26h768z" />
<glyph unicode="&#xe12f;" d="M256 426.667q0-106 75-181t181-75 181 75 75 181-75 181-181 75-181-75-75-181zM854 426.667q0-164-130-268l-42-244h-340l-42 244q-130 100-130 268t130 268l42 244h340l42-244q130-104 130-268z" />
<glyph unicode="&#xe130;" d="M726 256.667h170v-214h-214v130l-170 180-170-180v-130h-214v214h170l172 170v136q-38 14-62 46t-24 74q0 52 38 90t90 38 90-38 38-90q0-42-24-74t-62-46v-136z" />
<glyph unicode="&#xe131;" d="M682 298.667v86h214v-86h-214zM384 298.667v86h214v-86h-214zM86 298.667v86h212v-86h-212zM86 554.667h810v-86h-810v86z" />
<glyph unicode="&#xe132;" d="M810 468.667v86h-170v170h-86v-170h-170v-86h170v-170h86v170h170zM854 852.667q34 0 59-25t25-59v-512q0-34-25-60t-59-26h-512q-34 0-60 26t-26 60v512q0 34 26 59t60 25h512zM170 682.667v-598h598v-84h-598q-34 0-59 25t-25 59v598h84z" />
<glyph unicode="&#xe133;" d="M640 426.667q0-52-38-90t-90-38-90 38-38 90 38 90 90 38 90-38 38-90zM512 84.667q140 0 241 101t101 241-101 241-241 101-241-101-101-241 101-241 241-101zM512 852.667q176 0 301-125t125-301-125-301-301-125-301 125-125 301 125 301 301 125z" />
<glyph unicode="&#xe134;" d="M592 388.667l176 80-176 80-80 176-80-176-176-80 176-80 80-176zM810 852.667q34 0 60-25t26-59v-598q0-34-26-60t-60-26h-170l-128-128-128 128h-170q-34 0-60 26t-26 60v598q0 34 26 59t60 25h596z" />
<glyph unicode="&#xe135;" d="M614 682.667h240v-426h-300l-16 84h-240v-298h-84v726h384z" />
<glyph unicode="&#xe136;" d="M512 810.667h298v-128h-170v-470h-2q-8-72-62-121t-128-49q-80 0-136 56t-56 136 56 136 136 56q34 0 64-12v396z" />
<glyph unicode="&#xe137;" d="M598 384.667q18 0 30-13t12-31-12-30-30-12-31 12-13 30 13 31 31 13zM598 234.667q20 0 20-22 0-20-20-20-22 0-22 20 0 22 22 22zM512 84.667q140 0 241 101t101 241-101 241-241 101-241-101-101-241 101-241 241-101zM512 852.667q176 0 301-125t125-301-125-301-301-125-301 125-125 301 125 301 301 125zM726 532.667q20 0 20-20 0-22-20-22-22 0-22 22 0 20 22 20zM726 362.667q20 0 20-22 0-20-20-20-22 0-22 20 0 22 22 22zM598 618.667q-22 0-22 22 0 20 22 20 20 0 20-20 0-22-20-22zM598 554.667q18 0 30-12t12-30-12-31-30-13-31 13-13 31 13 30 31 12zM426 618.667q-20 0-20 22 0 20 20 20 22 0 22-20 0-22-22-22zM298 362.667q22 0 22-22 0-20-22-20-20 0-20 20 0 22 20 22zM426 234.667q22 0 22-22 0-20-22-20-20 0-20 20 0 22 20 22zM298 532.667q22 0 22-20 0-22-22-22-20 0-20 22 0 20 20 20zM426 384.667q18 0 31-13t13-31-13-30-31-12-30 12-12 30 12 31 30 13zM426 554.667q18 0 31-12t13-30-13-31-31-13-30 13-12 31 12 30 30 12z" />
<glyph unicode="&#xe138;" d="M554 212.667q-18 0-30 13t-12 31 12 30 30 12 31-12 13-30-13-31-31-13zM554 384.667q-18 0-30 12t-12 30 12 30 30 12 31-12 13-30-13-30-31-12zM554 554.667q-18 0-30 12t-12 30 12 31 30 13 31-13 13-31-13-30-31-12zM726 404.667q-22 0-22 22t22 22q20 0 20-22t-20-22zM726 576.667q-22 0-22 20 0 22 22 22 20 0 20-22 0-20-20-20zM128 810.667h768v-86h-768v86zM726 234.667q-22 0-22 22 0 20 22 20 20 0 20-20 0-22-20-22zM384 212.667q-18 0-30 13t-12 31 12 30 30 12 30-12 12-30-12-31-30-13zM214 362.667q-26 0-45 18t-19 46 19 46 45 18 45-18 19-46-19-46-45-18zM214 532.667q-26 0-45 19t-19 45 19 45 45 19 45-19 19-45-19-45-45-19zM128 42.667v86h768v-86h-768zM384 554.667q-18 0-30 12t-12 30 12 31 30 13 30-13 12-31-12-30-30-12zM384 384.667q-18 0-30 12t-12 30 12 30 30 12 30-12 12-30-12-30-30-12zM214 192.667q-26 0-45 19t-19 45 19 45 45 19 45-19 19-45-19-45-45-19z" />
<glyph unicode="&#xe139;" d="M128 362.667q22 0 22-22 0-20-22-20t-22 20q0 22 22 22zM256 212.667q18 0 30-12t12-30-12-30-30-12-30 12-12 30 12 30 30 12zM426 64.667q22 0 22-22t-22-22q-20 0-20 22t20 22zM128 532.667q22 0 22-20 0-22-22-22t-22 22q0 20 22 20zM256 384.667q18 0 30-13t12-31-12-30-30-12-30 12-12 30 12 31 30 13zM896 362.667q22 0 22-22 0-20-22-20t-22 20q0 22 22 22zM426 212.667q18 0 31-12t13-30-13-30-31-12-30 12-12 30 12 30 30 12zM106 714.667l54 54 694-694-56-54-160 162q2-4 2-12 0-18-12-30t-30-12-31 12-13 30 13 30 31 12q8 0 12-2l-120 120q-4-22-22-38t-42-16q-26 0-45 19t-19 45q0 24 16 42t38 22l-120 120q2-4 2-12 0-18-12-31t-30-13-30 13-12 31 12 30 30 12l12-2zM598 64.667q20 0 20-22t-20-22q-22 0-22 22t22 22zM768 640.667q-18 0-30 12t-12 30 12 30 30 12 30-12 12-30-12-30-30-12zM768 468.667q-18 0-30 13t-12 31 12 30 30 12 30-12 12-30-12-31-30-13zM768 298.667q-18 0-30 12t-12 30 12 31 30 13 30-13 12-31-12-30-30-12zM426 640.667q-18 0-30 12t-12 30 12 30 30 12 31-12 13-30-13-30-31-12zM896 490.667q-22 0-22 22 0 20 22 20t22-20q0-22-22-22zM426 788.667q-20 0-20 22t20 22q22 0 22-22t-22-22zM598 788.667q-22 0-22 22t22 22q20 0 20-22t-20-22zM588 448.667q-20 2-36 18t-18 36v10q0 26 19 45t45 19 45-19 19-45-19-45-45-19h-10zM598 640.667q-18 0-31 12t-13 30 13 30 31 12 30-12 12-30-12-30-30-12z" />
<glyph unicode="&#xe13a;" d="M598 576.667q26 0 45-19t19-45-19-45-45-19-45 19-19 45 19 45 45 19zM598 404.667q26 0 45-19t19-45-19-45-45-19-45 19-19 45 19 45 45 19zM426 212.667q18 0 31-12t13-30-13-30-31-12-30 12-12 30 12 30 30 12zM426 576.667q26 0 45-19t19-45-19-45-45-19-45 19-19 45 19 45 45 19zM598 64.667q20 0 20-22t-20-22q-22 0-22 22t22 22zM598 212.667q18 0 30-12t12-30-12-30-30-12-31 12-13 30 13 30 31 12zM896 362.667q22 0 22-22 0-20-22-20t-22 20q0 22 22 22zM768 724.667q18 0 30-12t12-30-12-30-30-12-30 12-12 30 12 30 30 12zM768 554.667q18 0 30-12t12-30-12-31-30-13-30 13-12 31 12 30 30 12zM768 212.667q18 0 30-12t12-30-12-30-30-12-30 12-12 30 12 30 30 12zM768 384.667q18 0 30-13t12-31-12-30-30-12-30 12-12 30 12 31 30 13zM426 404.667q26 0 45-19t19-45-19-45-45-19-45 19-19 45 19 45 45 19zM426 640.667q-18 0-30 12t-12 30 12 30 30 12 31-12 13-30-13-30-31-12zM426 788.667q-20 0-20 22t20 22q22 0 22-22t-22-22zM426 64.667q22 0 22-22t-22-22q-20 0-20 22t20 22zM128 362.667q22 0 22-22 0-20-22-20t-22 20q0 22 22 22zM598 788.667q-22 0-22 22t22 22q20 0 20-22t-20-22zM598 640.667q-18 0-31 12t-13 30 13 30 31 12 30-12 12-30-12-30-30-12zM896 490.667q-22 0-22 22 0 20 22 20t22-20q0-22-22-22zM256 724.667q18 0 30-12t12-30-12-30-30-12-30 12-12 30 12 30 30 12zM128 532.667q22 0 22-20 0-22-22-22t-22 22q0 20 22 20zM256 554.667q18 0 30-12t12-30-12-31-30-13-30 13-12 31 12 30 30 12zM256 212.667q18 0 30-12t12-30-12-30-30-12-30 12-12 30 12 30 30 12zM256 384.667q18 0 30-13t12-31-12-30-30-12-30 12-12 30 12 31 30 13z" />
<glyph unicode="&#xe13b;" d="M86 426.667q0 176 125 301t301 125 301-125 125-301-125-301-301-125-301 125-125 301z" />
<glyph unicode="&#xe13c;" d="M426 852.667q178 0 303-125t125-301-125-301-303-125q-116 0-212 56 98 56 155 155t57 215-57 215-155 155q96 56 212 56z" />
<glyph unicode="&#xe13d;" d="M384 852.667q176 0 301-125t125-301-125-301-301-125q-68 0-128 18 132 40 215 153t83 255-83 255-215 153q60 18 128 18z" />
<glyph unicode="&#xe13e;" d="M512 170.667q106 0 181 75t75 181-75 181-181 75q-52 0-106-24 66-30 107-93t41-139-41-139-107-93q54-24 106-24zM854 568.667l140-142-140-142v-200h-200l-142-140-142 140h-200v200l-140 142 140 142v200h200l142 140 142-140h200v-200z" />
<glyph unicode="&#xe13f;" d="M512 170.667q106 0 181 75t75 181-75 181-181 75-181-75-75-181 75-181 181-75zM854 284.667v-200h-200l-142-140-142 140h-200v200l-140 142 140 142v200h200l142 140 142-140h200v-200l140-142z" />
<glyph unicode="&#xe140;" d="M512 170.667q106 0 181 75t75 181-75 181-181 75v-512zM854 284.667v-200h-200l-142-140-142 140h-200v200l-140 142 140 142v200h200l142 140 142-140h200v-200l140-142z" />
<glyph unicode="&#xe141;" d="M512 596.667q70 0 120-50t50-120-50-120-120-50-120 50-50 120 50 120 120 50zM512 170.667q106 0 181 75t75 181-75 181-181 75-181-75-75-181 75-181 181-75zM854 568.667l140-142-140-142v-200h-200l-142-140-142 140h-200v200l-140 142 140 142v200h200l142 140 142-140h200v-200z" />
<glyph unicode="&#xe142;" d="M768 450.667l128-128v-194q0-34-26-60t-60-26h-596q-34 0-60 26t-26 60v280l128-128 170 172 172-172zM896 724.667v-280l-128 128-170-172-172 172-170-172-128 130v194q0 34 26 60t60 26h596q34 0 60-26t26-60z" />
<glyph unicode="&#xe143;" d="M884 740.667q12-12 12-30t-12-30l-382-382-118 118 382 382q12 12 30 12t30-12zM298 340.667q52 0 90-38t38-90q0-70-50-120t-120-50q-104 0-170 86 30 0 57 23t27 61q0 52 38 90t90 38z" />
<glyph unicode="&#xe144;" d="M420 10.667q8 14 86 150t120 206l156-270q-118-96-270-96-42 0-92 10zM104 298.667h414l-158-270q-92 34-159 105t-97 165zM198 714.667l216-374h-320q-8 38-8 86 0 166 112 288zM930 512.667q8-38 8-86 0-166-112-288l-204 352-12 22h320zM920 554.667h-414l158 270q92-34 159-105t97-165zM402 490.667l-4-4-156 270q118 96 270 96 42 0 92-10z" />
<glyph unicode="&#xe145;" d="M512 212.667q88 0 151 63t63 151-63 151-151 63-151-63-63-151 63-151 151-63zM384 852.667h256l78-84h136q34 0 59-26t25-60v-512q0-34-25-60t-59-26h-684q-34 0-59 26t-25 60v512q0 34 25 60t59 26h136zM376 426.667q0 56 40 96t96 40 96-40 40-96-40-96-96-40-96 40-40 96z" />
<glyph unicode="&#xe146;" d="M298 852.667v-448q0 48 73 78t141 30 141-30 73-78v448h-428zM726 938.667q34 0 59-26t25-60v-596q0-34-25-60t-59-26h-300l128-128-128-128v86h-212v84h212v86h-128q-34 0-59 26t-25 60v596q0 34 25 60t59 26h428zM512 596.667q-34 0-59 26t-25 60 25 60 59 26 60-26 26-60-26-60-60-26zM598 84.667h212v-84h-212v84z" />
<glyph unicode="&#xe147;" d="M512 682.667q34 0 59 26t25 60-25 59-59 25-60-25-26-59 25-60 61-26zM726 938.667q34 0 59-26t25-60v-596q0-34-25-60t-59-26h-300l128-128-128-128v86h-212v84h212v86h-128q-34 0-59 26t-25 60v596q0 34 25 60t59 26h428zM598 84.667h212v-84h-212v84z" />
<glyph unicode="&#xe148;" d="M854 554.667v86h-86v-86h86zM854 170.667v86h-86v-86h86zM682 554.667v86h-84v-86h84zM682 170.667v86h-84v-86h84zM512 554.667v86h-86v-86h86zM512 170.667v86h-86v-86h86zM598 724.667h340v-640h-340q0-34-26-59t-60-25h-342q-34 0-59 25t-25 59v640q0 34 25 60t59 26h44v42q0 18 12 31t30 13h170q18 0 31-13t13-31v-42h42q34 0 60-26t26-60z" />
<glyph unicode="&#xe149;" d="M810 128.667v170h86v-170q0-34-26-60t-60-26h-170v86h170zM810 810.667q34 0 60-26t26-60v-170h-86v170h-170v86h170zM214 724.667v-170h-86v170q0 34 26 60t60 26h170v-86h-170zM214 298.667v-170h170v-86h-170q-34 0-60 26t-26 60v170h86zM512 596.667q70 0 120-50t50-120-50-120-120-50-120 50-50 120 50 120 120 50z" />
<glyph unicode="&#xe14a;" d="M512 340.667q34 0 60 26t26 60-26 60-60 26-60-26-26-60 26-60 60-26zM512 596.667q70 0 120-50t50-120-50-120-120-50-120 50-50 120 50 120 120 50zM810 128.667v170h86v-170q0-34-26-60t-60-26h-170v86h170zM810 810.667q34 0 60-26t26-60v-170h-86v170h-170v86h170zM214 724.667v-170h-86v170q0 34 26 60t60 26h170v-86h-170zM214 298.667v-170h170v-86h-170q-34 0-60 26t-26 60v170h86z" />
<glyph unicode="&#xe14b;" d="M86 682.667h84v-598h598v-84h-598q-34 0-59 25t-25 59v598zM470 426.667l-128-170h512l-172 212-126-158zM938 256.667q0-34-25-60t-59-26h-512q-34 0-60 26t-26 60v512q0 34 26 59t60 25h512q34 0 59-25t25-59v-512z" />
<glyph unicode="&#xe14c;" d="M746 426.667q26 0 45 18t19 46-19 46-45 18-45-18-19-46 19-46 45-18zM618 596.667q26 0 45 19t19 45-19 45-45 19-45-19-19-45 19-45 45-19zM406 596.667q26 0 45 19t19 45-19 45-45 19-45-19-19-45 19-45 45-19zM278 426.667q26 0 45 18t19 46-19 46-45 18-45-18-19-46 19-46 45-18zM512 810.667q158 0 271-100t113-242q0-88-63-150t-151-62h-74q-28 0-46-19t-18-45q0-22 16-42t16-44q0-28-18-46t-46-18q-160 0-272 112t-112 272 112 272 272 112z" />
<glyph unicode="&#xe14d;" d="M296 128.667l344 344-82 82-344-344zM884 698.667q30-30 0-60l-134-134 82-82-60-60-60 60-382-380h-202v202l380 382-60 60 60 60 82-82 134 134q12 12 30 12t30-12z" />
<glyph unicode="&#xe14e;" d="M810 810.667q34 0 60-26t26-60v-596q0-34-26-60t-60-26h-212v384l212-256v554h-212v86h212zM426 170.667v256l-212-256h212zM426 810.667v86h86v-940h-86v86h-212q-34 0-60 26t-26 60v596q0 34 26 60t60 26h212z" />
<glyph unicode="&#xe14f;" d="M512 84.667q140 0 241 101t101 241-101 241-241 101-241-101-101-241 101-241 241-101zM512 852.667q176 0 301-125t125-301-125-301-301-125-301 125-125 301 125 301 301 125zM554 640.667v-172h172v-84h-172v-172h-84v172h-172v84h172v172h84z" />
<glyph unicode="&#xe150;" d="M640 128.667q124 0 211 87t87 211-87 211-211 87-211-87-87-211 87-211 211-87zM640 810.667q160 0 272-112t112-272-112-272-272-112-272 112-112 272 112 272 272 112zM86 426.667q0-88 46-161t124-109v-92q-112 40-184 140t-72 222 72 222 184 140v-92q-78-36-124-109t-46-161zM682 596.667v-128h128v-84h-128v-128h-84v128h-128v84h128v128h84z" />
<glyph unicode="&#xe151;" d="M810 256.667v340h-596v-340h596zM810 682.667q34 0 60-26t26-60v-340q0-34-26-60t-60-26h-596q-34 0-60 26t-26 60v340q0 34 26 60t60 26h596z" />
<glyph unicode="&#xe152;" d="M810 170.667v512h-596v-512h596zM810 768.667q34 0 60-26t26-60v-512q0-34-26-60t-60-26h-596q-34 0-60 26t-26 60v512q0 34 26 60t60 26h596z" />
<glyph unicode="&#xe153;" d="M298 212.667h684v-84h-172v-172h-84v172h-428q-34 0-59 25t-25 59v428h-172v84h172v172h84v-684zM726 298.667v342h-342v84h342q34 0 59-25t25-59v-342h-84z" />
<glyph unicode="&#xe154;" d="M810 212.667v428h-596v-428h596zM810 724.667q34 0 60-25t26-59v-428q0-34-26-59t-60-25h-596q-34 0-60 25t-26 59v428q0 34 26 59t60 25h596z" />
<glyph unicode="&#xe155;" d="M810 298.667v256h-596v-256h596zM810 640.667q34 0 60-26t26-60v-256q0-34-26-60t-60-26h-596q-34 0-60 26t-26 60v256q0 34 26 60t60 26h596z" />
<glyph unicode="&#xe156;" d="M810 128.667v596h-596v-596h596zM810 810.667q34 0 60-26t26-60v-596q0-34-26-60t-60-26h-596q-34 0-60 26t-26 60v596q0 34 26 60t60 26h596z" />
<glyph unicode="&#xe157;" d="M810 810.667q34 0 60-26t26-60v-170h-86v170h-170v86h170zM810 128.667v170h86v-170q0-34-26-60t-60-26h-170v86h170zM214 298.667v-170h170v-86h-170q-34 0-60 26t-26 60v170h86zM128 724.667q0 34 26 60t60 26h170v-86h-170v-170h-86v170z" />
<glyph unicode="&#xe158;" d="M810 212.667v428h-596v-428h596zM810 724.667q34 0 60-25t26-59v-428q0-34-26-59t-60-25h-596q-34 0-60 25t-26 59v428q0 34 26 59t60 25h596z" />
<glyph unicode="&#xe159;" d="M596 414.667l150-202h-468l116 152 84-102zM810 128.667v596h-596v-596h596zM810 810.667q34 0 60-26t26-60v-596q0-34-26-60t-60-26h-596q-34 0-60 26t-26 60v596q0 34 26 60t60 26h596z" />
<glyph unicode="&#xe15a;" d="M726 128.667v596h-428v-596h428zM726 810.667q34 0 59-26t25-60v-596q0-34-25-60t-59-26h-428q-34 0-59 26t-25 60v596q0 34 25 60t59 26h428z" />
<glyph unicode="&#xe15b;" d="M768 170.667v512h-512v-512h512zM768 768.667q34 0 60-26t26-60v-512q0-34-26-60t-60-26h-512q-34 0-60 26t-26 60v512q0 34 26 60t60 26h512z" />
<glyph unicode="&#xe15c;" d="M86 704.667h852v-86h-852v86zM86 490.667h852v-86h-852v86zM86 276.667h852v-84h-852v84z" />
<glyph unicode="&#xe15d;" d="M272 682.667l240-426 240 426h-480zM128 768.667h768l-384-684z" />
<glyph unicode="&#xe15e;" d="M884 638.667l-78-78-160 160 78 78q12 12 30 12t30-12l100-100q12-12 12-30t-12-30zM128 202.667l472 472 160-160-472-472h-160v160z" />
<glyph unicode="&#xe15f;" d="M854 84.667v684l-684-684h684zM214 724.667v-84h256v84h-256zM854 852.667q34 0 59-25t25-59v-684q0-34-25-59t-59-25h-684q-34 0-59 25t-25 59v684q0 34 25 59t59 25h684zM640 212.667h-86v86h86v86h86v-86h84v-86h-84v-84h-86v84z" />
<glyph unicode="&#xe160;" d="M810 170.667h-84v454l-128-44v72l200 72h12v-554zM170 468.667h342v-84h-342v84z" />
<glyph unicode="&#xe161;" d="M86 468.667h340v-84h-340v84zM702 724.667q172 0 172-150 0-28-8-50-14-38-22-50-34-54-80-100l-122-132h254v-72h-368v64l178 194q36 36 62 80 14 24 14 56 0 26-4 36-20 52-76 52-92 0-92-98h-92q0 72 48 120 50 50 136 50z" />
<glyph unicode="&#xe162;" d="M854 170.667h-86v454l-128-44v72l200 72h14v-554zM426 640.667v-172h172v-84h-172v-172h-84v172h-172v84h172v172h84z" />
<glyph unicode="&#xe163;" d="M342 640.667v-172h170v-84h-170v-172h-86v172h-170v84h170v172h86zM684 242.667h254v-72h-368v64l178 194q36 36 62 80 16 26 16 56 0 32-22 62-20 26-60 26-42 0-70-28-22-22-22-70h-92q0 72 48 120 28 28 58 38 36 12 80 12 36 0 72-10 40-16 54-30 46-40 46-110 0-48-32-100-24-40-34-50-28-32-46-50z" />
<glyph unicode="&#xe164;" d="M598 506.667q0 80-22 114-8 12-28 24-14 8-36 8t-36-8q-20-12-28-24-22-34-22-114v-114q0-112 50-142 14-8 36-8 42 0 64 34 24 36 24 116v114h-2zM336 492.667q0 232 176 232 130 0 164-124 14-52 14-108v-88h-2q0-118-48-180-28-32-56-42-32-12-72-12t-72 12q-28 10-56 42-48 54-48 180v88z" />
<glyph unicode="&#xe165;" d="M896 212.667v598h-598v-598h598zM896 896.667q34 0 60-26t26-60v-598q0-34-26-59t-60-25h-598q-34 0-59 25t-25 59v598q0 34 25 60t59 26h598zM598 298.667v342h-86v84h170v-426h-84zM128 724.667v-682h682v-86h-682q-34 0-60 26t-26 60v682h86z" />
<glyph unicode="&#xe166;" d="M726 384.667v-86h-256v170q0 36 25 61t59 25h86v86h-170v84h170q36 0 61-24t25-60v-86q0-36-26-61t-60-25h-86v-84h172zM896 212.667v598h-598v-598h598zM896 896.667q34 0 60-26t26-60v-598q0-34-26-59t-60-25h-598q-34 0-59 25t-25 59v598q0 34 25 60t59 26h598zM128 724.667v-682h682v-86h-682q-34 0-60 26t-26 60v682h86z" />
<glyph unicode="&#xe167;" d="M726 384.667q0-36-26-61t-60-25h-170v86h170v84h-86v86h86v86h-170v84h170q36 0 61-24t25-60v-64q0-26-19-45t-45-19q26 0 45-19t19-45v-64zM128 724.667v-682h682v-86h-682q-34 0-60 26t-26 60v682h86zM896 212.667v598h-598v-598h598zM896 896.667q34 0 60-26t26-60v-598q0-34-26-59t-60-25h-598q-34 0-59 25t-25 59v598q0 34 25 60t59 26h598z" />
<glyph unicode="&#xe168;" d="M896 212.667v598h-598v-598h598zM896 896.667q34 0 60-26t26-60v-598q0-34-26-59t-60-25h-598q-34 0-59 25t-25 59v598q0 34 25 60t59 26h598zM128 724.667v-682h682v-86h-682q-34 0-60 26t-26 60v682h86zM680 498.667l152-200h-470l118 150 84-100z" />
<glyph unicode="&#xe169;" d="M896 212.667v598h-598v-598h598zM896 896.667q34 0 60-26t26-60v-598q0-34-26-59t-60-25h-598q-34 0-59 25t-25 59v598q0 34 25 60t59 26h598zM640 298.667v170h-170v256h84v-170h86v170h86v-426h-86zM128 724.667v-682h682v-86h-682q-34 0-60 26t-26 60v682h86z" />
<glyph unicode="&#xe16a;" d="M726 384.667q0-36-26-61t-60-25h-170v86h170v84h-170v256h256v-84h-172v-86h86q34 0 60-25t26-61v-84zM128 724.667v-682h682v-86h-682q-34 0-60 26t-26 60v682h86zM896 212.667v598h-598v-598h598zM896 896.667q34 0 60-26t26-60v-598q0-34-26-59t-60-25h-598q-34 0-59 25t-25 59v598q0 34 25 60t59 26h598z" />
<glyph unicode="&#xe16b;" d="M554 468.667v-84h86v84h-86zM554 298.667q-34 0-59 25t-25 61v256q0 36 25 60t59 24h172v-84h-172v-86h86q34 0 60-25t26-61v-84q0-36-26-61t-60-25h-86zM896 212.667v598h-598v-598h598zM896 896.667q34 0 60-26t26-60v-598q0-34-26-59t-60-25h-598q-34 0-59 25t-25 59v598q0 34 25 60t59 26h598zM128 724.667v-682h682v-86h-682q-34 0-60 26t-26 60v682h86z" />
<glyph unicode="&#xe16c;" d="M554 298.667h-84l170 342h-170v84h256v-84zM896 212.667v598h-598v-598h598zM896 896.667q34 0 60-26t26-60v-598q0-34-26-59t-60-25h-598q-34 0-59 25t-25 59v598q0 34 25 60t59 26h598zM128 724.667v-682h682v-86h-682q-34 0-60 26t-26 60v682h86z" />
<glyph unicode="&#xe16d;" d="M554 468.667v-84h86v84h-86zM554 640.667v-86h86v86h-86zM554 298.667q-34 0-59 25t-25 61v64q0 26 19 45t45 19q-26 0-45 19t-19 45v64q0 36 25 60t59 24h86q36 0 61-24t25-60v-64q0-26-19-45t-45-19q26 0 45-19t19-45v-64q0-36-26-61t-60-25h-86zM896 212.667v598h-598v-598h598zM896 896.667q34 0 60-26t26-60v-598q0-34-26-59t-60-25h-598q-34 0-59 25t-25 59v598q0 34 25 60t59 26h598zM128 724.667v-682h682v-86h-682q-34 0-60 26t-26 60v682h86z" />
<glyph unicode="&#xe16e;" d="M640 554.667v86h-86v-86h86zM640 724.667q36 0 61-24t25-60v-256q0-36-26-61t-60-25h-170v86h170v84h-86q-34 0-59 25t-25 61v86q0 36 25 60t59 24h86zM896 212.667v598h-598v-598h598zM896 896.667q34 0 60-26t26-60v-598q0-34-26-59t-60-25h-598q-34 0-59 25t-25 59v598q0 34 25 60t59 26h598zM128 724.667v-682h682v-86h-682q-34 0-60 26t-26 60v682h86z" />
<glyph unicode="&#xe16f;" d="M896 554.667v256h-598v-598h598v256h-86v-84h-84v84h-86v86h86v86h84v-86h86zM896 896.667q34 0 60-26t26-60v-598q0-34-26-59t-60-25h-598q-34 0-59 25t-25 59v598q0 34 25 60t59 26h598zM470 554.667h42v42h-42v-42zM598 426.667q0-36-26-61t-60-25h-128v86h128v42h-42q-34 0-60 25t-26 61v42q0 36 26 61t60 25h42q34 0 60-25t26-61v-170zM128 724.667v-682h682v-86h-682q-34 0-60 26t-26 60v682h86z" />
<glyph unicode="&#xe170;" d="M810 128.667v596h-298v-256zM810 810.667q34 0 60-26t26-60v-596q0-34-26-60t-60-26h-596q-34 0-60 26t-26 60v596q0 34 26 60t60 26h596zM512 468.667l-298-340h298v340z" />
<glyph unicode="&#xe171;" d="M512 554.667q52 0 90-38t38-90-38-90-90-38-90 38-38 90 38 90 90 38zM810 128.667v170h86v-170q0-34-26-60t-60-26h-170v86h170zM810 810.667q34 0 60-26t26-60v-170h-86v170h-170v86h170zM214 724.667v-170h-86v170q0 34 26 60t60 26h170v-86h-170zM214 298.667v-170h170v-86h-170q-34 0-60 26t-26 60v170h86z" />
<glyph unicode="&#xe172;" d="M810 170.667q52 0 90 38t38 90-38 90-90 38h-64v22q0 98-68 166t-166 68q-116 0-188-94 82-22 135-91t53-157h-86q0 70-50 121t-120 51-120-51-50-121 50-120 120-50h554zM826 510.667q82-6 140-67t58-145q0-88-63-151t-151-63h-554q-106 0-181 75t-75 181q0 98 66 171t162 83q42 78 118 126t166 48q116 0 204-73t110-185z" />
<glyph unicode="&#xe173;" d="M768 596.667h-512v-426h512v426zM854 84.667v598h-192l-148 150-150-150h-194v-598h684zM854 768.667q34 0 59-26t25-60v-598q0-34-25-59t-59-25h-684q-34 0-59 25t-25 59v598q0 34 25 60t59 26h172l170 170 170-170h172z" />
<glyph unicode="&#xe174;" d="M598 682.667l384-512h-940l256 342 192-256 68 50-120 162z" />
<glyph unicode="&#xe175;" d="M896 212.667v598h-598v-598h598zM896 896.667q34 0 60-26t26-60v-598q0-34-26-59t-60-25h-598q-34 0-59 25t-25 59v598q0 34 25 60t59 26h598zM128 724.667v-682h682v-86h-682q-34 0-60 26t-26 60v682h86z" />
<glyph unicode="&#xe176;" d="M242 96.667l60 60q74-56 168-68v-86q-126 12-228 94zM554 88.667q94 12 166 68l62-60q-102-82-228-94v86zM782 216.667q56 76 68 166h86q-12-124-94-226zM640 426.667q0-52-38-90t-90-38-90 38-38 90 38 90 90 38 90-38 38-90zM174 384.667q12-94 68-166l-60-62q-82 102-94 228h86zM242 636.667q-56-74-68-168h-86q12 126 94 228zM850 468.667q-12 94-68 168l60 60q82-102 94-228h-86zM782 756.667l-60-60q-74 56-168 68v86q126-12 228-94zM470 764.667q-94-12-168-68l-60 60q102 82 228 94v-86z" />
<glyph unicode="&#xe177;" d="M512 256.667q70 0 120 50t50 120-50 120-120 50-120-50-50-120 50-120 120-50zM98 188.667q0 76 45 145t119 93l-36 18q-60 36-94 95t-34 125q128 74 256 0 18-8 34-22-4 28-4 40 0 70 35 129t93 93q58-34 93-93t35-129q0-12-4-40 16 14 34 22 128 74 256 0 0-66-34-125t-94-95q-4-2-11-6t-13-7-12-5q6-2 12-5t13-7 11-6q60-36 94-95t34-125q-128-74-256 0-18 8-34 22 4-28 4-40 0-70-35-129t-93-93q-58 34-93 93t-35 129q0 12 4 40-16-14-34-22-128-74-256 0z" />
<glyph unicode="&#xe178;" d="M470-43.333v256h84v-256h-84zM240 214.667l92 92 60-60-92-92zM632 246.667l60 60 92-92-60-60zM512 554.667q52 0 90-38t38-90-38-90-90-38-90 38-38 90 38 90 90 38zM726 468.667h256v-84h-256v84zM784 638.667l-92-92-60 60 92 92zM554 896.667v-256h-84v256h84zM392 606.667l-60-60-92 92 60 60zM298 468.667v-84h-256v84h256z" />
<glyph unicode="&#xe179;" d="M718 612.667h100l-50 156zM810 852.667l138-384h-82l-30 86h-136l-30-86h-82l138 384h84zM128 852.667h426l-170-384h170l-298-512v384h-128v512z" />
<glyph unicode="&#xe17a;" d="M726 512.667l-66-114-362 362v92h428l-172-340h172zM140 810.667l670-672-54-54-176 178-154-262v384h-128v158l-212 214z" />
<glyph unicode="&#xe17b;" d="M298 852.667h428l-172-340h172l-300-512v384h-128v468z" />
<glyph unicode="&#xe17c;" d="M810 42.667v86h86q0-34-26-60t-60-26zM810 384.667v84h86v-84h-86zM640 724.667v86h86v-86h-86zM810 212.667v86h86v-86h-86zM470-43.333v940h84v-940h-84zM810 810.667q34 0 60-26t26-60h-86v86zM128 724.667q0 34 26 60t60 26h170v-86h-170v-596h170v-86h-170q-34 0-60 26t-26 60v596zM810 554.667v86h86v-86h-86zM640 42.667v86h86v-86h-86z" />
<glyph unicode="&#xe17d;" d="M810 468.667v256h-596v-256h84v-84h86v-86h86v86h84v-86h86v86h86v84h84zM726 170.667v86h-86v-86h86zM554 170.667v86h-84v-86h84zM384 170.667v86h-86v-86h86zM810 810.667q34 0 60-26t26-60v-596q0-34-26-60t-60-26h-596q-34 0-60 26t-26 60v596q0 34 26 60t60 26h596zM298 554.667h86v-86h-86v86zM640 554.667h86v-86h-86v86zM470 554.667h84v-86h86v-84h-86v84h-84v-84h-86v84h86v86zM726 384.667v-86h84v86h-84zM298 384.667h-84v-86h84v86z" />
<glyph unicode="&#xe17e;" d="M426 768.667q34 0 60-26t26-60-26-60-60-26-59 26-25 60 25 60 59 26zM598 596.667q34 0 59-25t25-59-25-60-59-26-60 26-26 60 26 59 60 25zM768 426.667q34 0 60-26t26-60-26-59-60-25-60 25-26 59 26 60 60 26zM598 256.667q34 0 59-26t25-60-25-60-59-26-60 26-26 60 26 60 60 26zM768 596.667q-34 0-60 26t-26 60 26 60 60 26 60-26 26-60-26-60-60-26zM256 256.667q34 0 60-26t26-60-26-60-60-26-60 26-26 60 26 60 60 26zM256 596.667q34 0 60-25t26-59-26-60-60-26-60 26-26 60 26 59 60 25zM426 426.667q34 0 60-26t26-60-26-59-60-25-59 25-25 59 25 60 59 26z" />
<glyph unicode="&#xe17f;" d="M682 84.667h62l-62 62v-62zM598 84.667v148l-24 24h-148v-172h172zM342 340.667v148l-24 24h-148v-172h172zM342 84.667v172h-172v-172h172zM170 658.667v-62h62zM426 402.667v-62h62zM54 884.667l916-916-54-54-86 86h-660q-34 0-59 25t-25 59v660l-86 86zM682 768.667v-172h172v172h-172zM342 768.667h-62l-86 84h660q34 0 59-25t25-59v-660l-84 86v62h-62l-86 84h148v172h-172v-148l-84 86v62h-62l-86 84h148v172h-172v-148l-84 86v62z" />
<glyph unicode="&#xe180;" d="M854 596.667v172h-172v-172h172zM854 340.667v172h-172v-172h172zM854 84.667v172h-172v-172h172zM598 596.667v172h-172v-172h172zM598 340.667v172h-172v-172h172zM598 84.667v172h-172v-172h172zM342 596.667v172h-172v-172h172zM342 340.667v172h-172v-172h172zM342 84.667v172h-172v-172h172zM854 852.667q34 0 59-25t25-59v-684q0-34-25-59t-59-25h-684q-34 0-59 25t-25 59v684q0 34 25 59t59 25h684z" />
<glyph unicode="&#xe181;" d="M106 832.667q196-198 816-812l-48-46-324 324h-144v146l-64 64v-210h-64v106h-86v-106h-64v256h64v-86h86v86h16l-234 234zM554 490.667h-16l-64 64h80q26 0 45-19t19-45v-82l-64 64v18zM746 490.667v-42h86v42h-86zM746 298.667h-16l-48 46v210h150q26 0 45-19t19-45v-42q0-46-38-60l38-90h-64l-38 86h-48v-86z" />
<glyph unicode="&#xe182;" d="M554 362.667v128h-84v-128h84zM554 554.667q26 0 45-19t19-45v-128q0-26-19-45t-45-19h-148v256h148zM278 468.667v86h64v-256h-64v106h-86v-106h-64v256h64v-86h86zM832 448.667v42h-86v-42h86zM896 448.667q0-40-38-60l38-90h-64l-38 86h-48v-86h-64v256h150q26 0 45-19t19-45v-42z" />
<glyph unicode="&#xe183;" d="M214 340.667q34 0 59 26t25 60-25 60-59 26-60-26-26-60 26-60 60-26zM214 596.667q70 0 120-50t50-120-50-120-120-50-121 50-51 120 51 120 121 50zM726 682.667q106 0 181-75t75-181-75-181-181-75-181 75-75 181 75 181 181 75z" />
<glyph unicode="&#xe184;" d="M726 256.667q70 0 120 50t50 120-50 120-120 50-121-50-51-120 51-120 121-50zM726 682.667q106 0 181-75t75-181-75-181-181-75-181 75-75 181 75 181 181 75zM214 596.667q70 0 120-50t50-120-50-120-120-50-121 50-51 120 51 120 121 50z" />
<glyph unicode="&#xe185;" d="M710 70.667l156 156-156 154-154-156zM598 468.667q-18 0-31-12t-13-30 13-30 31-12 30 12 12 30-12 30-30 12zM512 298.667q18 0 30 12t12 30-12 31-30 13-30-13-12-31 12-30 30-12zM426 384.667q18 0 31 12t13 30-13 30-31 12-30-12-12-30 12-30 30-12zM312 470.667l154 156-154 154-156-156zM512 554.667q-18 0-30-12t-12-30 12-31 30-13 30 13 12 31-12 30-30 12zM756 426.667l170-170q12-12 12-30t-12-30l-184-186q-12-12-30-12-20 0-32 12l-168 170-170-170q-12-12-30-12t-30 12l-186 186q-12 12-12 30t12 30l170 170-170 168q-12 12-12 31t12 31l186 184q12 12 30 12t30-12l170-170 168 170q12 12 31 12t31-12l184-184q12-12 12-31t-12-31z" />
<glyph unicode="&#xe186;" d="M362 362.667l-148-192h596l-192 256-148-192zM896 128.667q0-34-26-60t-60-26h-596q-34 0-60 26t-26 60v596q0 34 26 60t60 26h596q34 0 60-26t26-60v-596z" />
<glyph unicode="&#xe187;" d="M854 170.667v512h-684v-512h684zM854 768.667q34 0 59-26t25-60v-512q0-34-25-60t-59-26h-684q-34 0-59 26t-25 60v512q0 34 25 60t59 26h684zM512 512.667v-86h-86v86h86zM342 512.667v-86h-86v86h86zM682 340.667v-84h-84v84h84zM682 512.667v-86h-84v86h84z" />
<glyph unicode="&#xe188;" d="M726 212.667h-214v64h214v-64zM810 128.667v596l-596-596h596zM234 618.667v-64h86v-86h64v86h86v64h-86v86h-64v-86h-86zM810 810.667q34 0 60-26t26-60v-596q0-34-26-60t-60-26h-596q-34 0-60 26t-26 60v596q0 34 26 60t60 26h596z" />
</font>
</defs>
</svg>
